<?xml version="1.0" standalone="no"?>
<!DOCTYPE svg PUBLIC "-//W3C//DTD SVG 1.1//EN" "http://www.w3.org/Graphics/SVG/1.1/DTD/svg11.dtd" >
<svg xmlns="http://www.w3.org/2000/svg">
<metadata>Generated by IcoMoon</metadata>
<defs>
<font id="icomoon" horiz-adv-x="1024">
<font-face units-per-em="1024" ascent="960" descent="-64" />
<missing-glyph horiz-adv-x="1024" />
<glyph unicode="&#x20;" horiz-adv-x="512" d="" />
<glyph unicode="&#xe001;" glyph-name="general" d="M1024-64h-1024v1024h1024zM32-32h960v960h-960zM320 336c0 0.005 0 0.011 0 0.016 0 38.519-27.223 70.68-63.479 78.292l-0.521 0.092v289.6h-32v-289.6c-39.061-5.723-68.715-38.998-68.715-79.2s29.653-73.477 68.28-79.148l0.434-0.052v-64h32v64c36.785 7.697 64.016 39.862 64.016 78.387 0 0.567-0.006 1.133-0.018 1.697l0.001-0.084zM240 288c-26.51 0-48 21.49-48 48s21.49 48 48 48c26.51 0 48-21.49 48-48v0c0-26.51-21.49-48-48-48v0zM608 560c0 0.005 0 0.011 0 0.016 0 38.519-27.223 70.68-63.479 78.292l-0.521 0.092v65.6h-32v-65.6c-39.061-5.723-68.715-38.998-68.715-79.2s29.653-73.477 68.28-79.148l0.434-0.052v-288h32v288c36.785 7.697 64.016 39.862 64.016 78.387 0 0.567-0.006 1.133-0.018 1.697l0.001-0.084zM528 512c-26.51 0-48 21.49-48 48s21.49 48 48 48c26.51 0 48-21.49 48-48v0c0-26.51-21.49-48-48-48v0zM896 336c0 0.005 0 0.011 0 0.016 0 38.519-27.223 70.68-63.479 78.292l-0.521 0.092v289.6h-32v-289.6c-39.061-5.723-68.715-38.998-68.715-79.2s29.653-73.477 68.28-79.148l0.434-0.052v-64h32v64c36.785 7.697 64.016 39.862 64.016 78.387 0 0.567-0.006 1.133-0.018 1.697l0.001-0.084zM816 288c-26.51 0-48 21.49-48 48s21.49 48 48 48c26.51 0 48-21.49 48-48v0c0-26.51-21.49-48-48-48v0z" />
<glyph unicode="&#xe002;" glyph-name="setting" d="M377.479 336.227l617.306 617.306 22.863-22.863-617.306-617.306-22.863 22.863zM137.094-64l-137.094 137.417 343.058 342.734 137.094-137.094zM45.59 73.417l91.504-91.504 297.468 297.144-91.504 91.504zM231.507 507.332c-0.049 0-0.107 0-0.165 0-125.001 0-226.334 101.333-226.334 226.334 0 31.019 6.24 60.581 17.533 87.499l-0.555-1.492 10.347 22.633 129.334-131.597 92.474 91.504-131.274 131.274 22.31 9.377c25.532 10.838 55.226 17.137 86.392 17.137 125.001 0 226.334-101.333 226.334-226.334s-101.333-226.334-226.334-226.334c-0.022 0-0.043 0-0.065 0h0.003zM43.973 783.783c-4.209-15.080-6.628-32.397-6.628-50.278 0-107.144 86.857-194.001 194.001-194.001s194.001 86.857 194.001 194.001c0 107.144-86.857 194.001-194.001 194.001-17.882 0-35.199-2.419-51.641-6.949l1.362 0.32 118.987-118.664-138.387-137.094zM368.711 573.293l22.863 22.863 434.401-434.401-22.863-22.863-434.401 434.401zM894.343-58.827c-71.385 0.058-129.232 57.94-129.232 129.334 0 71.429 57.905 129.334 129.334 129.334s129.334-57.905 129.334-129.334c0-35.74-14.497-68.094-37.931-91.503l-0.001-0.001c-23.4-23.374-55.713-37.83-91.402-37.83-0.036 0-0.071 0-0.107 0h0.005zM894.343 167.507c-0.025 0-0.055 0-0.085 0-53.572 0-97-43.429-97-97s43.429-97 97-97c53.572 0 97 43.429 97 97 0 26.765-10.84 50.998-28.369 68.548l0.001-0.001c-17.538 17.559-41.771 28.429-68.542 28.453h-0.005z" />
<glyph unicode="&#xe003;" glyph-name="lock" horiz-adv-x="896" d="M816-64h-736c-44.183 0-80 35.817-80 80v0 544c0 44.183 35.817 80 80 80v0h736c44.183 0 80-35.817 80-80v0-544c0-44.183-35.817-80-80-80v0zM80 608c-26.51 0-48-21.49-48-48v0-544c0-26.51 21.49-48 48-48v0h736c26.51 0 48 21.49 48 48v0 544c0 26.51-21.49 48-48 48v0zM704 608h-512v96c0 141.385 114.615 256 256 256s256-114.615 256-256v0zM224 640h448v64c0 123.712-100.288 224-224 224s-224-100.288-224-224v0zM448 256c-53.019 0-96 42.981-96 96s42.981 96 96 96c53.019 0 96-42.981 96-96v0c0-53.019-42.981-96-96-96v0zM448 416c-35.346 0-64-28.654-64-64s28.654-64 64-64c35.346 0 64 28.654 64 64v0c0 35.346-28.654 64-64 64v0zM432 288h32v-160h-32v160z" />
<glyph unicode="&#xe004;" glyph-name="password" horiz-adv-x="896" d="M816-64h-736c-44.183 0-80 35.817-80 80v0 544c0 44.183 35.817 80 80 80v0h736c44.183 0 80-35.817 80-80v0-544c0-44.183-35.817-80-80-80v0zM80 608c-26.51 0-48-21.49-48-48v0-544c0-26.51 21.49-48 48-48v0h736c26.51 0 48 21.49 48 48v0 544c0 26.51-21.49 48-48 48v0zM704 608h-512v96c0 141.385 114.615 256 256 256s256-114.615 256-256v0zM224 640h448v64c0 123.712-100.288 224-224 224s-224-100.288-224-224v0zM256 256c-17.673 0-32 14.327-32 32s14.327 32 32 32c17.673 0 32-14.327 32-32v0c0-17.673-14.327-32-32-32v0zM512 256c-17.673 0-32 14.327-32 32s14.327 32 32 32c17.673 0 32-14.327 32-32v0c0-17.673-14.327-32-32-32v0zM384 256c-17.673 0-32 14.327-32 32s14.327 32 32 32c17.673 0 32-14.327 32-32v0c0-17.673-14.327-32-32-32v0zM640 256c-17.673 0-32 14.327-32 32s14.327 32 32 32c17.673 0 32-14.327 32-32v0c0-17.673-14.327-32-32-32v0z" />
<glyph unicode="&#xe005;" glyph-name="email" horiz-adv-x="1020" d="M774.437 81.908l-774.437 505.398 1020.369 372.694zM73.284 577.073l681.676-442.347 216.222 772.456zM352.227-64v443.667l615.985 549.632 22.117-24.758-605.091-539.729v-348.596l206.649 208.629 23.438-23.108-263.097-265.738z" />
<glyph unicode="&#xe006;" glyph-name="email-envelope" d="M896 0h-896v608h497.92v-32h-465.92v-544h832v370.24h32v-402.24zM448 219.52l-442.24 360 20.48 24.96 421.76-344 179.84 146.88 20.16-24.96-200-162.88zM752 352c-150.221 0-272 121.779-272 272s121.779 272 272 272c150.221 0 272-121.779 272-272v0c-0.182-150.148-121.852-271.818-271.982-272h-0.018zM752 864c-132.548 0-240-107.452-240-240s107.452-240 240-240c132.548 0 240 107.452 240 240v0c0 132.548-107.452 240-240 240v0zM826.56 468.48c-23.569-12.944-51.648-20.559-81.505-20.559-1.834 0-3.661 0.029-5.481 0.086l0.266-0.007c-82.004 0.694-148.214 67.333-148.214 149.435 0 3.718 0.136 7.404 0.403 11.053l-0.029-0.488c0 105.6 69.76 197.12 177.92 197.12 0.944 0.023 2.056 0.036 3.171 0.036 76.878 0 139.2-62.322 139.2-139.2 0-3.165-0.106-6.306-0.314-9.418l0.023 0.422c0-77.12-40.96-122.24-86.72-122.24-19.52 0-37.76 14.080-36.16 45.12h-1.92c-12.263-26.436-38.349-44.561-68.728-45.119l-0.072-0.001c-29.836 2.188-53.213 26.932-53.213 57.135 0 2.419 0.15 4.804 0.441 7.144l-0.028-0.28c-0.028 0.966-0.044 2.102-0.044 3.242 0 64.458 51.369 116.917 115.402 118.675l0.162 0.004c0.405 0.005 0.884 0.007 1.363 0.007 18.511 0 36.086-4.010 51.902-11.208l-0.786 0.32-16.64-92.8c-7.36-39.040-1.6-57.28 14.72-57.6 24.64 0 52.48 34.24 52.48 93.76 0 74.56-42.24 128-118.080 128s-146.24-65.6-146.24-169.92c0-85.76 53.12-138.56 125.44-138.56 1.031-0.026 2.245-0.041 3.463-0.041 25.724 0 49.894 6.656 70.88 18.341l-0.743-0.38zM800 690.24c-7.129 2.435-15.341 3.841-23.882 3.841-0.154 0-0.308 0-0.462-0.001h0.024c-43.985-4.586-77.982-41.462-77.982-86.279 0-2.182 0.081-4.346 0.239-6.487l-0.017 0.286c0-22.72 10.56-39.040 32-39.040 28.48 0 54.4 38.080 59.52 69.76zM517.852 291.765l20.264 24.766 351.931-287.95-20.264-24.766-351.931 287.95zM5.641 28.284l352.132 287.704 20.247-24.781-352.132-287.704-20.247 24.781z" />
<glyph unicode="&#xe007;" glyph-name="map-marker" d="M512-71.597l-11.892 12.883c-15.855 16.516-384.495 408.279-384.495 622.328 0 218.919 177.469 396.387 396.387 396.387s396.387-177.469 396.387-396.387v0c0-214.049-368.64-605.812-384.495-622.328zM512 926.968c-200.675 0-363.355-162.68-363.355-363.355v0c0-180.356 299.272-516.625 363.355-586.653 64.083 70.028 363.355 406.297 363.355 586.653 0 200.675-162.68 363.355-363.355 363.355v0zM512 332.387c-127.702 0-231.226 103.523-231.226 231.226s103.523 231.226 231.226 231.226c127.702 0 231.226-103.523 231.226-231.226v0c0-127.702-103.523-231.226-231.226-231.226v0zM512 761.806c-109.459 0-198.194-88.734-198.194-198.194s88.734-198.194 198.194-198.194c109.459 0 198.194 88.734 198.194 198.194v0c0 109.459-88.734 198.194-198.194 198.194v0z" />
<glyph unicode="&#xe008;" glyph-name="map-marker-city" d="M856.857 391.185l-29.399 14.534c5.615 11.231 10.901 22.462 15.525 33.032l30.39-13.213c-4.955-11.231-10.57-22.792-16.516-34.354zM873.373 425.868l-30.39 13.213c4.955 10.901 9.249 21.801 13.213 33.032l31.050-11.231c-4.294-11.892-8.919-23.453-13.874-35.014zM578.065 398.452h-33.032v297.29h165.161v-165.161h162.188c1.866 9.918 2.947 21.34 2.973 33.010v0.023c0 200.675-162.68 363.355-363.355 363.355s-363.355-162.68-363.355-363.355v0c2.79-45.938 14.681-88.49 33.885-126.737l-0.853 1.875-30.059-13.543c-20.22 40.342-33.208 87.548-35.964 137.482l-0.041 0.923c0 218.919 177.469 396.387 396.387 396.387s396.387-177.469 396.387-396.387v0c-0.182-18.472-2.339-36.343-6.269-53.539l0.323 1.679-2.973-12.883-222.307-1.321v165.161h-99.097zM512-71.597l-11.892 12.883c-2.312 2.312-218.343 231.226-324.377 433.053l-12.883 24.114h117.925v165.161h90.839l99.097-132.129h90.839v-33.032h-107.355l-99.097 132.129h-41.29v-165.161h-95.794c90.111-146.413 187.134-273.485 295.385-389.981l-1.398 1.522c48.227 52.521 228.253 254.679 315.458 429.419l29.399-14.534c-102.73-205.791-323.386-439.99-332.965-449.899z" />
<glyph unicode="&#xe009;" glyph-name="zip-code" horiz-adv-x="1018" d="M508.82 316.025l-11.448 12.084c-9.858 10.494-236.283 251.23-236.283 384.159 0 136.818 110.913 247.732 247.732 247.732s247.732-110.913 247.732-247.732v0c0-132.929-226.425-373.665-236.283-384.159zM508.82 928.199c-119.182-0.181-215.75-96.748-215.93-215.913v-0.017c0-104.308 169.501-298.614 215.93-349.814 46.43 50.882 215.93 245.188 215.93 349.814-0.181 119.182-96.748 215.75-215.913 215.93h-0.017zM508.82 616.865c-52.69 0-95.404 42.714-95.404 95.404s42.714 95.404 95.404 95.404c52.69 0 95.404-42.714 95.404-95.404v0c0-52.69-42.714-95.404-95.404-95.404v0zM508.82 775.871c-35.127 0-63.602-28.476-63.602-63.602s28.476-63.602 63.602-63.602c35.127 0 63.602 28.476 63.602 63.602v0c0 35.127-28.476 63.602-63.602 63.602v0zM1017.64-64l-412.462 131.975-286.847-127.523-318.33 134.201v765.774l285.893-120.209-12.084-29.575-242.007 102.082v-697.083l285.893-120.527 285.575 126.887 382.569-122.435v698.037l-249.958 79.503 9.54 30.529 272.219-86.499v-765.138zM286.211 625.769h31.801v-651.925h-31.801v651.925zM604.224 466.763h31.801v-397.516h-31.801v397.516z" />
<glyph unicode="&#xe00a;" glyph-name="flag" horiz-adv-x="768" d="M576 480h-576v480h576zM32 512h512v416h-512zM768 384h-480v112h32v-80h416v384h-176v32h208v-448zM0 496h32v-560h-32v560z" />
<glyph unicode="&#xe00b;" glyph-name="fields" d="M768-64h-768v1024h502.72l265.28-265.28v-102.72h-32v89.28l-246.72 246.72h-457.28v-960h704v112h32v-144zM752 672h-272v272h32v-240h240v-32zM1024 64h-832v544h832zM224 96h768v480h-768zM480 480h224v-32h-224v32zM480 224h224v-32h-224v32zM576 464h32v-256h-32v256z" />
<glyph unicode="&#xe00c;" glyph-name="clip-copy" horiz-adv-x="896" d="M128 384h256v-64h-256v64zM128 192h160v-64h-160v64zM672 768h-128v32c0 88.366-71.634 160-160 160s-160-71.634-160-160v0-32h-128c-53.019 0-96-42.981-96-96v0-640c0-53.019 42.981-96 96-96v0h576c53.019 0 96 42.981 96 96v0 160h-64v-160c0-17.673-14.327-32-32-32v0h-576c-17.673 0-32 14.327-32 32v0 480h640v-128h64v288c0 53.019-42.981 96-96 96v0zM288 800c0 53.019 42.981 96 96 96s96-42.981 96-96v0-32h-192zM64 576v96c0 17.673 14.327 32 32 32v0h576c17.673 0 32-14.327 32-32v0-96zM572.16 256h323.84v64h-323.84l58.56 58.56-45.44 45.12-135.68-135.68 135.68-135.68 45.44 45.12-58.56 58.56z" />
<glyph unicode="&#xe00d;" glyph-name="first-name" d="M512 672c0 88.366-71.634 160-160 160s-160-71.634-160-160c0-88.366 71.634-160 160-160v0c88.366 0 160 71.634 160 160v0zM352 544c-70.692 0-128 57.308-128 128s57.308 128 128 128c70.692 0 128-57.308 128-128v0c0-70.692-57.308-128-128-128v0zM1024 800v32h-352v-526.080c-56.976 122.192-178.776 205.359-320.001 205.359-194.151 0-351.589-157.185-351.999-351.24v-96.039h704v448h192v32h-192v256zM672 96h-640v64c0 176.731 143.269 320 320 320s320-143.269 320-320v0z" />
<glyph unicode="&#xe00e;" glyph-name="last-name" d="M512 672c0 88.366-71.634 160-160 160s-160-71.634-160-160c0-88.366 71.634-160 160-160v0c88.366 0 160 71.634 160 160v0zM352 544c-70.692 0-128 57.308-128 128s57.308 128 128 128c70.692 0 128-57.308 128-128v0c0-70.692-57.308-128-128-128v0zM1024 64v32h-320v736h-32v-526.080c-56.976 122.192-178.776 205.359-320.001 205.359-194.151 0-351.589-157.185-351.999-351.24v-96.039h1024zM672 96h-640v64c0 176.731 143.269 320 320 320s320-143.269 320-320v0z" />
<glyph unicode="&#xe00f;" glyph-name="text" d="M496 960h32v-1024h-32v1024zM0 960h1024v-32h-1024v32zM0 960h32v-288h-32v288zM256-32h512v-32h-512v32zM992 960h32v-288h-32v288z" />
<glyph unicode="&#xe010;" glyph-name="paragraph" horiz-adv-x="512" d="M480 960h32v-1024h-32v1024zM384 960h32v-1024h-32v1024zM240 480c-132.548 0-240 107.452-240 240s107.452 240 240 240v0c0.213 0.001 0.466 0.001 0.719 0.001 66.034 0 125.78-26.92 168.864-70.384l0.017-0.017-22.4-22.4c-37.707 38.045-89.979 61.6-147.753 61.6-114.875 0-208-93.125-208-208s93.125-208 208-208c57.774 0 110.047 23.555 147.738 61.585l0.015 0.015 23.040-22.4c-43.254-44.297-103.515-71.822-170.206-72h-0.034z" />
<glyph unicode="&#xe011;" glyph-name="dropdown" d="M1024-64h-1024v1024h1024zM32-32h960v960h-960zM512 317.44l-227.2 227.2 22.72 22.4 204.48-204.16 204.48 204.16 22.72-22.4-227.2-227.2z" />
<glyph unicode="&#xe012;" glyph-name="checkbox" d="M896 0h-896v896h896v-160h-32v128h-832v-832h832v448h32v-480zM364.8 250.24l-137.28 171.84 24.96 19.84 118.72-148.16 627.52 439.36 18.56-26.24-652.48-456.64z" />
<glyph unicode="&#xe013;" glyph-name="multiple-choices" d="M288 672h-288v288h288zM32 704h224v224h-224zM416 832h608v-32h-608v32zM288 320h-288v288h288zM32 352h224v224h-224zM416 480h608v-32h-608v32zM288-64h-288v288h288zM32-32h224v224h-224zM416 96h608v-32h-608v32z" />
<glyph unicode="&#xe014;" glyph-name="multiple-choices-radio" d="M112 736c-61.856 0-112 50.144-112 112s50.144 112 112 112c61.856 0 112-50.144 112-112v0c0-61.856-50.144-112-112-112v0zM112 928c-44.183 0-80-35.817-80-80s35.817-80 80-80c44.183 0 80 35.817 80 80v0c0 44.183-35.817 80-80 80v0zM352 864h672v-32h-672v32zM112 352c-61.856 0-112 50.144-112 112s50.144 112 112 112c61.856 0 112-50.144 112-112v0c0-61.856-50.144-112-112-112v0zM112 544c-44.183 0-80-35.817-80-80s35.817-80 80-80c44.183 0 80 35.817 80 80v0c0 44.183-35.817 80-80 80v0zM112 432c-17.673 0-32 14.327-32 32s14.327 32 32 32c17.673 0 32-14.327 32-32v0c0-17.673-14.327-32-32-32v0zM352 480h672v-32h-672v32zM112-64c-61.856 0-112 50.144-112 112s50.144 112 112 112c61.856 0 112-50.144 112-112v0c0-61.856-50.144-112-112-112v0zM112 128c-44.183 0-80-35.817-80-80s35.817-80 80-80c44.183 0 80 35.817 80 80v0c0 44.183-35.817 80-80 80v0zM352 64h672v-32h-672v32z" />
<glyph unicode="&#xe015;" glyph-name="number" d="M1024-64h-1024v1024h1024zM32-32h960v960h-960zM256 576h512v-32h-512v32zM256 352h512v-32h-512v32zM579.837 198.82l88.996 504.206 31.513-5.562-88.996-504.206-31.513 5.562zM341.278 198.609l88.996 504.206 31.513-5.562-88.996-504.206-31.513 5.562z" />
<glyph unicode="&#xe016;" glyph-name="website" d="M532.8-57.6l-25.28 19.52c102.606 132.318 164.484 300.699 164.484 483.532 0 0.896-0.001 1.791-0.004 2.686v-0.139c0.002 0.728 0.004 1.59 0.004 2.452 0 183.018-62.003 351.554-166.149 485.75l1.345-1.802 25.6 19.2c106.794-137.526 171.205-312.6 171.205-502.718 0-1.013-0.002-2.026-0.005-3.039v0.157c0.003-0.791 0.004-1.728 0.004-2.665 0-190.188-64.409-365.333-172.604-504.811l1.4 1.876zM491.2-57.6c-106.795 137.602-171.204 312.747-171.204 502.935 0 0.937 0.002 1.874 0.005 2.811v-0.146c-0.003 0.856-0.005 1.869-0.005 2.882 0 190.118 64.411 365.192 172.602 504.589l-1.397-1.871 25.6-19.2c-102.775-133.201-164.728-302.486-164.728-486.24s61.953-353.039 166.11-488.105l-1.382 1.865zM512 640c-145.655 0.014-282.586 37.355-401.752 102.977l4.312-2.177 15.36 27.2c110.016-60.444 241.089-96.002 380.467-96.002 0.567 0 1.135 0.001 1.702 0.002h-0.088c0.479-0.001 1.046-0.002 1.613-0.002 139.378 0 270.451 35.558 384.642 98.096l-4.176-2.095 15.36-28.16c-114.436-62.862-250.773-99.842-395.747-99.842-0.595 0-1.191 0.001-1.786 0.002h0.093zM129.92 128l-15.36 28.16c114.694 63.459 251.466 100.805 396.96 100.805s282.265-37.346 401.251-102.974l-4.291 2.17-15.040-28.16c-110.3 61.041-241.835 96.964-381.76 96.964s-271.46-35.924-385.885-99.051l4.125 2.087zM496 944h32v-992h-32v992zM512-64c-282.77 0-512 229.23-512 512s229.23 512 512 512c282.77 0 512-229.23 512-512v0c0-282.77-229.23-512-512-512v0zM512 928c-265.097 0-480-214.903-480-480s214.903-480 480-480c265.097 0 480 214.903 480 480v0c0 265.097-214.903 480-480 480v0zM0 464h1024v-32h-1024v32z" />
<glyph unicode="&#xe017;" glyph-name="calendar" horiz-adv-x="1026" d="M1025.603-65.603h-1025.603v897.402h1025.603zM32.050-33.552h961.502v833.302h-961.502zM256.401 960h32.050v-224.351h-32.050v224.351zM737.152 960h32.050v-224.351h-32.050v224.351zM16.025 607.449h993.552v-32.050h-993.552v32.050z" />
<glyph unicode="&#xe018;" glyph-name="single-item" horiz-adv-x="768" d="M768-64h-768v1024h502.72l265.28-265.28zM32-32h704v713.28l-246.72 246.72h-457.28zM752 672h-272v272h32v-240h240v-32z" />
<glyph unicode="&#xe019;" glyph-name="file-upload" horiz-adv-x="769" d="M769.202-64h-769.202v769.202h288.451v-32.050h-256.401v-705.102h705.102v705.102h-255.119v32.050h287.169v-769.202zM368.576 929.552h32.050v-384.601h-32.050v384.601zM509.276 790.135l-124.675 124.675-124.675-124.675-22.756 22.435 147.43 147.43 147.43-147.43-22.756-22.435zM160.25 448.801h448.701v-32.050h-448.701v32.050zM160.25 288.551h256.401v-32.050h-256.401v32.050zM160.25 128.3h448.701v-32.050h-448.701v32.050z" />
<glyph unicode="&#xe01a;" glyph-name="hidden" d="M511.839 189.82c-280.623 0-487.942 237.674-496.661 247.685l-9.042 10.657 9.042 10.334c8.719 10.334 216.038 248.008 496.661 248.008s489.234-237.674 496.661-248.008l9.042-10.334-9.042-10.657c-7.427-10.011-216.038-247.685-496.661-247.685zM49.408 448.161c43.595-46.178 229.601-226.049 462.431-226.049s419.804 179.87 462.431 226.049c-43.272 45.856-229.278 226.049-462.431 226.049s-418.836-180.193-462.431-226.049zM511.839 318.991c-71.339 0-129.171 57.832-129.171 129.171s57.832 129.171 129.171 129.171c71.339 0 129.171-57.832 129.171-129.171v0c0-71.339-57.832-129.171-129.171-129.171v0zM511.839 545.039c-53.504 0-96.878-43.374-96.878-96.878s43.374-96.878 96.878-96.878c53.504 0 96.878 43.374 96.878 96.878v0c0 53.504-43.374 96.878-96.878 96.878v0zM-0.26-40.95l1001.058 1001.058 22.834-22.834-1001.058-1001.058-22.834 22.834z" />
<glyph unicode="&#xe01b;" glyph-name="phone" horiz-adv-x="768" d="M688-64h-608c-44.183 0-80 35.817-80 80v0 864c0 44.183 35.817 80 80 80v0h608c44.183 0 80-35.817 80-80v0-864c0-44.183-35.817-80-80-80v0zM80 928c-26.51 0-48-21.49-48-48v0-864c0-26.51 21.49-48 48-48v0h608c26.51 0 48 21.49 48 48v0 864c0 26.51-21.49 48-48 48v0zM320 128h128v-32h-128v32zM352 800h256v-32h-256v32zM160 800h128v-32h-128v32z" />
<glyph unicode="&#xe01c;" glyph-name="custom-html" d="M1024-64h-1024v1024h1024zM32-32h960v960h-960zM356.8 300.8l-147.2 147.2 147.2 147.2 22.4-22.72-124.48-124.48 124.48-124.48-22.4-22.72zM667.2 300.8l-22.4 22.72 124.48 124.48-124.48 124.48 22.4 22.72 147.2-147.2-147.2-147.2zM433.609 327.017l127.961 255.867 28.62-14.313-127.961-255.867-28.62 14.313z" />
<glyph unicode="&#xe01d;" glyph-name="section-devider" horiz-adv-x="1029" d="M0 463.915h1028.823v-32.151h-1028.823v32.151zM639.478 789.601l-125.066 125.066-125.066-125.066-22.827 22.505 147.893 147.893 147.893-147.893-22.827-22.505zM498.336 930.1h32.151v-321.507h-32.151v321.507zM514.411-64l-147.893 147.893 22.827 22.827 125.066-125.066 125.066 125.066 22.827-22.827-147.893-147.893zM498.336 287.407h32.151v-321.507h-32.151v321.507z" />
<glyph unicode="&#xe01e;" glyph-name="integration" d="M320 128c-176.731 0-320 143.269-320 320s143.269 320 320 320c176.731 0 320-143.269 320-320v0c0-176.731-143.269-320-320-320v0zM320 736c-159.058 0-288-128.942-288-288s128.942-288 288-288c159.058 0 288 128.942 288 288v0c0 159.058-128.942 288-288 288v0zM704 128c-176.731 0-320 143.269-320 320s143.269 320 320 320c176.731 0 320-143.269 320-320v0c0-176.731-143.269-320-320-320v0zM704 736c-159.058 0-288-128.942-288-288s128.942-288 288-288c159.058 0 288 128.942 288 288v0c0 159.058-128.942 288-288 288v0z" />
<glyph unicode="&#xe01f;" glyph-name="payment" d="M1024 64h-1024v768h1024zM32 96h960v704h-960zM416 480h-256v192h256zM192 512h192v128h-192zM160 352h320v-32h-320v32zM160 256h128v-32h-128v32zM416 256h64v-32h-64v32zM720 192c-44.183 0-80 35.817-80 80s35.817 80 80 80c44.183 0 80-35.817 80-80v0c0-44.183-35.817-80-80-80v0zM720 320c-26.51 0-48-21.49-48-48s21.49-48 48-48c26.51 0 48 21.49 48 48v0c0 26.51-21.49 48-48 48v0zM784 192c-44.183 0-80 35.817-80 80s35.817 80 80 80c44.183 0 80-35.817 80-80v0c0-44.183-35.817-80-80-80v0zM784 320c-26.51 0-48-21.49-48-48s21.49-48 48-48c26.51 0 48 21.49 48 48v0c0 26.51-21.49 48-48 48v0z" />
<glyph unicode="&#xe020;" glyph-name="total" horiz-adv-x="777" d="M404.551 146.367c-53.623 0-97.092 43.47-97.092 97.092v0h32.364c-0.001-0.112-0.001-0.243-0.001-0.375 0-35.748 28.98-64.728 64.728-64.728s64.728 28.98 64.728 64.728c0 31.282-22.19 57.38-51.688 63.414l-0.417 0.071h-12.298c-8.863 0.658-16.947 1.807-24.849 3.449l1.224-0.213c-42.7 10.818-73.79 48.906-73.79 94.255 0 53.623 43.47 97.092 97.092 97.092s97.092-43.47 97.092-97.092c0-0.026 0-0.053 0-0.079v0.004h-32.364c0 35.748-28.98 64.728-64.728 64.728s-64.728-28.98-64.728-64.728v0c0.707-29.382 20.887-53.861 48.095-61.066l0.452-0.102c5.489-1.35 12.010-2.383 18.679-2.888l0.415-0.025h13.917c44.736-9.268 77.879-48.35 77.879-95.172 0-52.898-42.303-95.916-94.925-97.069l-0.107-0.002zM388.369 550.918h32.364v-453.097h-32.364v453.097zM388.369 648.010c-2.669-0.128-5.797-0.2-8.942-0.2-43.093 0-82.998 13.65-115.627 36.863l0.614-0.415-3.884 4.855c0 3.236-111.98 223.96-111.98 223.96-2.131 4.198-3.38 9.153-3.38 14.4 0 8.128 2.996 15.556 7.944 21.24l-0.033-0.039c5.971 6.941 14.765 11.309 24.579 11.309 3.593 0 7.050-0.586 10.279-1.666l-0.228 0.066 190.625-64.728c13.855-4.906 29.834-7.741 46.475-7.741 23.663 0 45.988 5.733 65.66 15.885l-0.802-0.376 90.619 45.31c4.234 2.175 9.237 3.449 14.539 3.449 8.996 0 17.135-3.671 23.001-9.596l0.003-0.003c5.864-5.858 9.491-13.954 9.491-22.896 0-5.216-1.234-10.145-3.426-14.509l0.085 0.186-111.332-220.076c-30.491-22.377-68.763-35.809-110.172-35.809-4.964 0-9.883 0.193-14.75 0.572l0.645-0.040zM287.070 707.56c26.205-17.177 58.311-27.397 92.805-27.397 2.988 0 5.958 0.077 8.908 0.228l-0.414-0.017c2.896-0.178 6.28-0.279 9.689-0.279 33.654 0 65 9.878 91.299 26.893l-0.659-0.399 106.154 212.632-90.619-45.633c-23.090-11.784-50.361-18.688-79.244-18.688-20.286 0-39.777 3.406-57.931 9.677l1.246-0.374-190.625 63.434c75.732-151.788 100.976-202.276 109.391-220.076zM695.828-64h-614.918c-0.194-0.002-0.424-0.003-0.653-0.003-43.988 0-79.711 35.385-80.257 79.243l-0.001 0.052v367.009c0.52 160.294 112.9 294.192 263.141 327.751l2.245 0.421 9.709 2.265 6.149-7.767c25.429-20.533 58.145-32.961 93.764-32.961 4.704 0 9.357 0.217 13.95 0.641l-0.589-0.044c4.004-0.38 8.657-0.597 13.361-0.597 35.619 0 68.336 12.428 94.050 33.184l-0.286-0.223 6.149 7.767 9.709-2.265c152.485-33.98 264.866-167.878 265.385-328.114v-367.067c-0.547-43.91-36.27-79.295-80.257-79.295-0.23 0-0.459 0.001-0.688 0.003h0.035zM263.767 677.138c-133.587-33.989-230.899-152.978-231.403-294.78v-367.066c0.364-26.353 21.813-47.576 48.218-47.576 0.115 0 0.231 0 0.346 0.001h614.9c0.097-0.001 0.213-0.001 0.328-0.001 26.405 0 47.854 21.223 48.218 47.542v367.043c-0.504 141.859-97.817 260.848-229.293 294.381l-2.11 0.456c-31.695-23.412-71.541-37.473-114.67-37.473-3.494 0-6.966 0.092-10.414 0.274l0.482-0.020c-2.966-0.162-6.439-0.254-9.932-0.254-43.129 0-82.974 14.060-115.201 37.848l0.532-0.375z" />
<glyph unicode="&#xe021;" glyph-name="setting-cog" d="M978.24 546.88l-58.56 8.32c-2.442 0.183-4.448 1.864-5.11 4.119l-0.010 0.041c-9.805 36.497-23.147 68.408-40.091 97.992l1.051-1.992c-0.608 0.899-0.971 2.007-0.971 3.2s0.363 2.301 0.984 3.22l-0.013-0.020c12.16 15.68 24.32 32 35.84 47.36 6.487 8.813 10.382 19.882 10.382 31.861 0 14.765-5.917 28.148-15.509 37.907l-63.992 63.992c-9.751 9.585-23.134 15.502-37.899 15.502-11.979 0-23.048-3.895-32.010-10.487l0.15 0.105c-15.68-11.52-32-23.68-47.36-35.84-0.899-0.608-2.007-0.971-3.2-0.971s-2.301 0.363-3.22 0.984l0.020-0.013c-27.592 15.893-59.503 29.235-93.143 38.379l-2.857 0.661c-2.296 0.672-3.977 2.678-4.159 5.101l-0.001 0.019c-2.56 19.52-5.44 39.36-8.32 58.56-4.395 25.484-26.132 44.691-52.435 45.119l-0.045 0.001h-91.52c-26.85-0.021-49.093-19.723-53.082-45.459l-0.038-0.301c-2.88-19.2-5.76-39.040-8.32-58.56-0.183-2.442-1.864-4.448-4.119-5.11l-0.041-0.010c-36.497-9.805-68.408-23.147-97.992-40.091l1.992 1.051c-0.899-0.608-2.007-0.971-3.2-0.971s-2.301 0.363-3.22 0.984l0.020-0.013c-15.68 12.16-32 24.32-47.36 35.84-8.813 6.487-19.882 10.382-31.861 10.382-14.765 0-28.148-5.917-37.907-15.509l-63.992-63.992c-9.585-9.751-15.502-23.134-15.502-37.899 0-11.979 3.895-23.048 10.487-32.010l-0.105 0.15c11.52-15.68 23.68-32 35.84-47.36 0.608-0.899 0.971-2.007 0.971-3.2s-0.363-2.301-0.984-3.22l0.013 0.020c-15.893-27.592-29.235-59.503-38.379-93.143l-0.661-2.857c-0.672-2.296-2.678-3.977-5.101-4.159l-0.019-0.001-58.56-8.32c-25.484-4.395-44.691-26.132-45.119-52.435l-0.001-0.045v-91.52c0.162-26.799 19.791-48.965 45.451-53.079l0.309-0.041 58.56-8.32c2.442-0.183 4.448-1.864 5.11-4.119l0.010-0.041c9.805-36.497 23.147-68.408 40.091-97.992l-1.051 1.992c0.608-0.899 0.971-2.007 0.971-3.2s-0.363-2.301-0.984-3.22l0.013 0.020c-12.16-15.68-24.32-32-35.84-47.36-6.487-8.813-10.382-19.882-10.382-31.861 0-14.765 5.917-28.148 15.509-37.907l63.992-63.992c9.751-9.585 23.134-15.502 37.899-15.502 11.979 0 23.048 3.895 32.010 10.487l-0.15-0.105c15.68 11.52 32 23.68 47.36 35.84 0.899 0.608 2.007 0.971 3.2 0.971s2.301-0.363 3.22-0.984l-0.020 0.013c27.592-15.893 59.503-29.235 93.143-38.379l2.857-0.661c2.296-0.672 3.977-2.678 4.159-5.101l0.001-0.019c2.56-19.52 5.44-39.36 8.32-58.56 4.273-25.55 26.082-44.825 52.449-45.12h91.551c26.799 0.162 48.965 19.791 53.079 45.451l0.041 0.309c2.88 19.2 5.76 39.040 8.32 58.56 0.183 2.442 1.864 4.448 4.119 5.11l0.041 0.010c36.497 9.805 68.408 23.147 97.992 40.091l-1.992-1.051c0.899 0.608 2.007 0.971 3.2 0.971s2.301-0.363 3.22-0.984l-0.020 0.013c15.68-12.16 32-24.32 47.36-35.84 8.758-6.525 19.791-10.446 31.739-10.446 14.873 0 28.327 6.076 38.015 15.881l64.005 64.005c9.585 9.751 15.502 23.134 15.502 37.899 0 11.979-3.895 23.048-10.487 32.010l0.105-0.15c-11.52 15.68-23.68 32-35.84 47.36-0.608 0.899-0.971 2.007-0.971 3.2s0.363 2.301 0.984 3.22l-0.013-0.020c15.824 27.581 29.162 59.486 38.363 93.1l0.677 2.9c0.672 2.296 2.678 3.977 5.101 4.159l0.019 0.001 58.56 8.32c25.38 4.374 44.532 25.946 45.119 52.099l0.001 0.061v91.52c-0.021 26.85-19.723 49.093-45.459 53.082l-0.301 0.038zM976.32 402.24c0-0.011 0-0.023 0-0.036 0-2.956-2.226-5.391-5.093-5.722l-0.027-0.002-57.92-8.32c-21.616-2.715-39.024-18.079-44.71-38.346l-0.090-0.374c-8.867-31.918-20.66-59.763-35.508-85.631l0.948 1.791c-4.417-7.608-7.024-16.742-7.024-26.485 0-12.379 4.209-23.775 11.274-32.835l-0.089 0.119 35.2-46.4c0.799-1.056 1.28-2.392 1.28-3.84s-0.481-2.784-1.292-3.856l0.012 0.016-64-64c-1.056-0.799-2.392-1.28-3.84-1.28s-2.784 0.481-3.856 1.292l0.016-0.012-46.72 35.2c-8.941 6.976-20.337 11.184-32.715 11.184-9.743 0-18.876-2.607-26.741-7.162l0.257 0.137c-24.077-13.9-51.922-25.693-81.251-33.938l-2.589-0.622c-20.641-5.776-36.005-23.184-38.693-44.539l-0.027-0.261c-2.56-19.52-5.44-39.040-8.32-57.92-0.333-2.894-2.769-5.12-5.724-5.12-0.013 0-0.025 0-0.038 0h-92.798c-0.011 0-0.023 0-0.036 0-2.956 0-5.391 2.226-5.722 5.093l-0.002 0.027c-2.88 18.88-5.76 38.4-8.32 57.92-2.715 21.616-18.079 39.024-38.346 44.71l-0.374 0.090c-31.918 8.867-59.763 20.66-85.631 35.508l1.791-0.948c-7.503 4.426-16.531 7.040-26.17 7.040-0.025 0-0.049 0-0.074 0h0.004c-12.122-0.223-23.227-4.401-32.124-11.292l0.124 0.092-47.36-36.8c-1.056-0.799-2.392-1.28-3.84-1.28s-2.784 0.481-3.856 1.292l0.016-0.012-64 64c-0.799 1.056-1.28 2.392-1.28 3.84s0.481 2.784 1.292 3.856l-0.012-0.016 35.2 46.72c6.976 8.941 11.184 20.337 11.184 32.715 0 9.743-2.607 18.876-7.162 26.741l0.137-0.257c-13.9 24.077-25.693 51.922-33.938 81.251l-0.622 2.589c-5.776 20.641-23.184 36.005-44.539 38.693l-0.261 0.027-57.92 8.32c-2.894 0.333-5.12 2.769-5.12 5.724 0 0.013 0 0.025 0 0.038v-0.002 92.8c0 0.011 0 0.023 0 0.036 0 2.956 2.226 5.391 5.093 5.722l0.027 0.002 57.92 8.32c21.616 2.715 39.024 18.079 44.71 38.346l0.090 0.374c8.32 31.883 19.595 59.768 33.919 85.736l-0.959-1.896c4.417 7.608 7.024 16.742 7.024 26.485 0 12.379-4.209 23.775-11.274 32.835l0.089-0.119-35.2 46.4c-0.799 1.056-1.28 2.392-1.28 3.84s0.481 2.784 1.292 3.856l-0.012-0.016 64 64c1.056 0.799 2.392 1.28 3.84 1.28s2.784-0.481 3.856-1.292l-0.016 0.012 46.72-35.2c8.894-7.053 20.28-11.314 32.661-11.314 9.777 0 18.933 2.657 26.785 7.289l-0.246-0.134c24.077 13.9 51.922 25.693 81.251 33.938l2.589 0.622c20.641 5.776 36.005 23.184 38.693 44.539l0.027 0.261c2.56 19.52 5.44 39.040 8.32 57.92 0.333 2.894 2.769 5.12 5.724 5.12 0.013 0 0.025 0 0.038 0h91.518c0.011 0 0.023 0 0.036 0 2.956 0 5.391-2.226 5.722-5.093l0.002-0.027c2.88-18.88 5.76-38.4 8.32-57.92 2.715-21.616 18.079-39.024 38.346-44.71l0.374-0.090c32.338-8.205 60.668-19.494 87.037-33.921l-1.917 0.961c7.606-4.497 16.762-7.154 26.539-7.154 12.381 0 23.767 4.262 32.771 11.398l-0.11-0.084 46.4 35.2c1.056 0.799 2.392 1.28 3.84 1.28s2.784-0.481 3.856-1.292l-0.016 0.012 64-64c0.799-1.056 1.28-2.392 1.28-3.84s-0.481-2.784-1.292-3.856l0.012 0.016-35.2-46.72c-6.976-8.941-11.184-20.337-11.184-32.715 0-9.743 2.607-18.876 7.162-26.741l-0.137 0.257c13.9-24.077 25.693-51.922 33.938-81.251l0.622-2.589c5.776-20.641 23.184-36.005 44.539-38.693l0.261-0.027 57.92-8.32c2.894-0.333 5.12-2.769 5.12-5.724 0-0.013 0-0.025 0-0.038v0.002-91.52zM512 670.4c-123.712 0-224-100.288-224-224s100.288-224 224-224c123.712 0 224 100.288 224 224v0c0 123.712-100.288 224-224 224v0zM512 273.6c-96.318 0-174.4 78.082-174.4 174.4s78.082 174.4 174.4 174.4c96.318 0 174.4-78.082 174.4-174.4v0c0-96.318-78.082-174.4-174.4-174.4v0z" />
<glyph unicode="&#xe022;" glyph-name="img-upload" horiz-adv-x="769" d="M368.576 898.784v-353.833h32.050v353.833l108.65-108.65 22.756 22.435-147.43 147.43-147.43-147.43 22.756-22.435 108.65 108.65zM480.751 703.599v-32.050h256.401v-681.705l-256.401 256.401-144.225-144.225-96.15 96.15-208.326-208.326v681.705h256.401v32.050h-288.451v-769.202h769.202v769.202zM202.556-33.552h-147.11l184.929 186.531 73.395-73.395zM247.747-33.552l233.004 234.607 233.004-234.607zM96.15 318.998c0-35.402 28.699-64.1 64.1-64.1s64.1 28.699 64.1 64.1c0 35.402-28.699 64.1-64.1 64.1v0c-35.402 0-64.1-28.699-64.1-64.1v0zM192.3 318.998c0-17.701-14.349-32.050-32.050-32.050s-32.050 14.349-32.050 32.050c0 17.701 14.349 32.050 32.050 32.050v0c17.701 0 32.050-14.349 32.050-32.050v0z" />
<glyph unicode="&#xe023;" glyph-name="pdf-submission" horiz-adv-x="768" d="M768-64h-768v1024h502.72l265.28-265.28zM32-32h704v713.28l-246.72 246.72h-457.28zM752 672h-272v272h32v-240h240v-32zM165.76 131.2c-0.077 0-0.167-0.001-0.258-0.001-10.654 0-20.7 2.603-29.537 7.209l0.354-0.168c-13.804 6.219-23.427 19.487-24.315 35.092l-0.005 0.108c0 21.76 18.24 43.2 55.040 64 30.294 17.636 66.497 35.451 103.935 50.878l6.145 2.242c24.208 40.097 45.369 86.382 61.083 135.113l1.317 4.727c-6.4 10.88-11.84 21.12-16.32 29.76-13.238 25.996-20.995 56.694-20.995 89.202 0 22.459 3.702 44.054 10.529 64.207l-0.414-1.409c5.088 11.603 15.236 20.172 27.574 22.989l0.266 0.051c1.906 0.221 4.115 0.348 6.354 0.348 25.057 0 46.419-15.824 54.636-38.024l0.131-0.403c1.915-3.984 3.034-8.661 3.034-13.6s-1.119-9.616-3.117-13.793l0.083 0.193c-5.752-50.806-15.313-96.7-28.649-140.957l1.449 5.597c22.613-36.16 47.106-67.572 74.458-96.23l-0.218 0.23c20.706 4.056 44.516 6.377 68.867 6.377 28.321 0 55.91-3.139 82.436-9.089l-2.503 0.472c22.407-8.879 37.965-30.363 37.965-55.48 0-4.148-0.424-8.197-1.232-12.105l0.067 0.385c-3.84-13.76-19.84-43.84-88.64-28.8-42.429 12.145-78.722 34.357-107.464 63.942l-0.056 0.058c-52.641-9.695-99.019-23.217-143.329-40.824l5.089 1.784c-28.539-48.355-63.225-89.563-103.666-124.252l-0.654-0.548c-8.216-5.777-18.419-9.245-29.431-9.28h-0.009zM244.8 241.28c-20.16-9.6-40.96-20.16-62.080-32-32-17.28-38.72-30.4-38.72-35.52s5.12-6.080 6.72-7.040c3.749-1.805 8.151-2.859 12.8-2.859s9.051 1.055 12.981 2.937l-0.181-0.078c25.724 21.971 48.264 46.44 67.643 73.339l0.837 1.221zM480 309.76c20.224-17.419 44.566-30.668 71.331-38.090l1.309-0.31c28.48-6.4 48.32-3.84 50.88 5.76 0.076 0.786 0.12 1.699 0.12 2.622 0 11.289-6.495 21.061-15.953 25.783l-0.167 0.075c-19.668 4.487-42.254 7.059-65.441 7.059-14.842 0-29.437-1.054-43.716-3.090l1.637 0.191zM362.24 394.88c-12.325-34.65-25.062-63.479-39.601-91.216l1.841 3.856c22.985 8.244 52.136 16.513 81.933 23.059l5.107 0.941c-17.172 18.968-33.472 39.638-48.321 61.377l-1.279 1.983zM348.8 603.52h-3.2c-2.199-1.318-3.878-3.308-4.774-5.683l-0.026-0.077c-4.211-14.167-6.635-30.444-6.635-47.288 0-27.77 6.587-54.002 18.285-77.218l-0.45 0.986c7.504 28.229 14.022 62.783 18.202 98.053l0.358 3.707v7.68c-2.458 5.276-5.8 9.745-9.882 13.406l-0.038 0.034c-3.164 3.292-7.343 5.587-12.032 6.382l-0.128 0.018z" />
<glyph unicode="&#xe024;" glyph-name="star" d="M512 800l117.12-239.040 16.64-2.24 245.12-35.84-189.76-182.72 2.88-16.64 41.92-244.16-219.2 115.2-14.72 9.28-14.72-8-219.52-115.2 45.12 260.8-12.8 10.56-177.28 172.8 261.76 38.080 7.36 15.040 110.080 222.080zM512 872.32l-138.24-280.32-309.76-43.52 224-218.24-53.12-308.16 277.12 145.6 276.8-145.6-52.8 308.16 224 218.24-309.12 45.12-138.88 280.32z" />
<glyph unicode="&#xe025;" glyph-name="likert" d="M672 896h-608v-896h896v896zM640 864v-256h-256v256zM640 576v-256h-256v256zM96 864h256v-256h-256zM96 576h256v-256h-256zM96 32v256h256v-256zM384 32v256h256v-256zM928 32h-256v256h256zM928 320h-256v256h256zM672 608v256h256v-256z" />
<glyph unicode="&#xe026;" glyph-name="scale-rating" d="M768 832v-736h-128v480h-256v-480h-128v224h-256v-256h1024v768zM32 96v192h192v-192zM416 96v448h192v-448zM800 96v704h192v-704z" />
<glyph unicode="&#xe027;" glyph-name="geo-map" d="M858.88 729.6c-19.402 95.656-102.81 166.645-202.798 166.645-98.61 0-181.093-69.045-201.743-161.428l-0.259-1.378-86.080 34.56-304-115.2v-652.8l304 115.2 288-115.2 304 115.2v652.8zM352 143.36l-256-96v583.36l256 96zM640 40.96l-256 102.4v583.68l64-25.92c-0.156-2.82-0.245-6.119-0.245-9.44s0.089-6.62 0.265-9.897l-0.020 0.457c0-97.92 143.36-261.12 192-313.28zM640 416c-64 73.6-160 195.84-160 265.6-0.076 0.958-0.12 2.074-0.12 3.2s0.043 2.242 0.129 3.346l-0.009-0.146c0.386 11.56 1.765 22.56 4.060 33.22l-0.22-1.22c16.187 81.292 86.956 141.709 171.837 141.709 86.139 0 157.746-62.221 172.327-144.171l0.156-1.058c1.665-9.551 3.032-21.314 3.789-33.242l0.051-0.998c0-69.76-96-192-160-265.6l-16-17.92zM928 136.64l-256-96v328.32c48.64 52.16 192 215.36 192 313.28 0 5.12 0 9.92 0 14.72l64 24.64zM752 688c0 53.019-42.981 96-96 96s-96-42.981-96-96c0-53.019 42.981-96 96-96v0c53.019 0 96 42.981 96 96v0zM656 624c-35.346 0-64 28.654-64 64s28.654 64 64 64c35.346 0 64-28.654 64-64v0c0-35.346-28.654-64-64-64v0z" />
<glyph unicode="&#xe028;" glyph-name="e-signature" d="M603.2 219.2c-2.809 2.988-6.787 4.849-11.2 4.849s-8.391-1.861-11.193-4.841l-0.007-0.008c-7.36-7.040-12.48-6.080-36.48 12.8-12.503 12.881-29.22 21.61-47.922 23.959l-0.398 0.041c-23.187-3.744-43.769-12.788-61.154-25.854l0.354 0.254c-5.76-3.52-13.12-8.32-19.2-11.52 0 75.2-2.24 133.12-48 133.12-40 0-46.4-42.88-52.16-80.64-4.16-29.12-9.28-62.080-27.2-73.92-7.388-3.935-16.157-6.245-25.465-6.245-6.468 0-12.675 1.116-18.439 3.165l0.385-0.119c-37.76 12.8-58.88 32-64 57.6-15.36 65.92 69.12 167.36 103.040 200.64 3.004 2.923 4.867 7.004 4.867 11.52 0 8.874-7.193 16.067-16.067 16.067-4.357 0-8.309-1.734-11.204-4.551l0.004 0.004c-5.44-5.44-134.4-134.080-112-230.72 12.463-40.819 45.416-71.753 86.57-81.129l0.79-0.151c9.567-2.44 20.549-3.84 31.859-3.84 0.050 0 0.099 0 0.149 0h-0.008c0.619-0.019 1.347-0.030 2.078-0.030 14.057 0 27.165 4.065 38.212 11.083l-0.29-0.172c29.76 20.16 35.84 60.48 40.96 96s6.4 53.44 17.92 53.44 16-64 16-112c-0.049-0.568-0.077-1.23-0.077-1.898 0-8.567 4.612-16.057 11.489-20.123l0.109-0.059c14.72-8.32 32 2.24 56.32 16.96 12.584 9.246 27.308 16.493 43.213 20.896l0.947 0.224c11.185-3.391 20.762-9.246 28.48-16.96v0c18.56-14.72 49.6-39.68 78.72-10.24 2.988 2.809 4.849 6.787 4.849 11.2s-1.861 8.391-4.841 11.193l-0.008 0.007zM603.2 219.2c-2.809 2.988-6.787 4.849-11.2 4.849s-8.391-1.861-11.193-4.841l-0.007-0.008c-7.36-7.040-12.48-6.080-36.48 12.8-12.503 12.881-29.22 21.61-47.922 23.959l-0.398 0.041c-23.187-3.744-43.769-12.788-61.154-25.854l0.354 0.254c-5.76-3.52-13.12-8.32-19.2-11.52 0 75.2-2.24 133.12-48 133.12-40 0-46.4-42.88-52.16-80.64-4.16-29.12-9.28-62.080-27.2-73.92-7.388-3.935-16.157-6.245-25.465-6.245-6.468 0-12.675 1.116-18.439 3.165l0.385-0.119c-37.76 12.8-58.88 32-64 57.6-15.36 65.92 69.12 167.36 103.040 200.64 3.004 2.923 4.867 7.004 4.867 11.52 0 8.874-7.193 16.067-16.067 16.067-4.357 0-8.309-1.734-11.204-4.551l0.004 0.004c-5.44-5.44-134.4-134.080-112-230.72 12.463-40.819 45.416-71.753 86.57-81.129l0.79-0.151c9.567-2.44 20.549-3.84 31.859-3.84 0.050 0 0.099 0 0.149 0h-0.008c0.619-0.019 1.347-0.030 2.078-0.030 14.057 0 27.165 4.065 38.212 11.083l-0.29-0.172c29.76 20.16 35.84 60.48 40.96 96s6.4 53.44 17.92 53.44 16-64 16-112c-0.049-0.568-0.077-1.23-0.077-1.898 0-8.567 4.612-16.057 11.489-20.123l0.109-0.059c14.72-8.32 32 2.24 56.32 16.96 12.584 9.246 27.308 16.493 43.213 20.896l0.947 0.224c11.185-3.391 20.762-9.246 28.48-16.96v0c18.56-14.72 49.6-39.68 78.72-10.24 2.988 2.809 4.849 6.787 4.849 11.2s-1.861 8.391-4.841 11.193l-0.008 0.007zM945.6 821.76c-9.115 5.554-20.14 8.842-31.932 8.842-22.679 0-42.518-12.161-53.351-30.318l-0.157-0.284-54.72-96h-741.44v-640h896v640h-10.24l18.56 32c5.062 8.953 8.045 19.661 8.045 31.066 0 23.060-12.195 43.271-30.489 54.536l-0.277 0.159zM817.6 661.76l53.12-32-154.56-267.52-52.8 30.4zM928 96h-832v576h690.88l-165.76-288v-3.2l-9.28-104.32c-0.062-0.576-0.098-1.245-0.098-1.921 0-10.349 8.327-18.753 18.646-18.879h0.012c4.079 0.087 7.837 1.391 10.944 3.563l-0.064-0.043 85.44 60.8 2.88 2.24 168.64 292.48 29.76 51.84zM940.8 752.32l-27.84-48.32-16.96-32-6.72-11.52-21.76 11.52-32 18.88 6.72 13.12 45.76 79.040c5.522 8.975 15.141 14.965 26.184 15.358l0.056 0.002c5.659-0.077 10.943-1.611 15.515-4.242l-0.155 0.082c6.773-4.195 11.793-10.67 14.024-18.334l0.056-0.226c0.652-2.412 1.026-5.182 1.026-8.039 0-5.617-1.447-10.897-3.99-15.485l0.083 0.164zM580.8 219.2c-7.36-7.040-12.48-6.080-36.48 12.8-12.503 12.881-29.22 21.61-47.922 23.959l-0.398 0.041c-23.187-3.744-43.769-12.788-61.154-25.854l0.354 0.254c-5.76-3.52-13.12-8.32-19.2-11.52 0 75.2-2.24 133.12-48 133.12-40 0-46.4-42.88-52.16-80.64-4.16-29.12-9.28-62.080-27.2-73.92-7.388-3.935-16.157-6.245-25.465-6.245-6.468 0-12.675 1.116-18.439 3.165l0.385-0.119c-37.76 12.8-58.88 32-64 57.6-15.36 65.92 69.12 167.36 103.040 200.64 3.004 2.923 4.867 7.004 4.867 11.52 0 8.874-7.193 16.067-16.067 16.067-4.357 0-8.309-1.734-11.204-4.551l0.004 0.004c-5.44-5.44-134.4-134.080-112-230.72 12.463-40.819 45.416-71.753 86.57-81.129l0.79-0.151c9.567-2.44 20.549-3.84 31.859-3.84 0.050 0 0.099 0 0.149 0h-0.008c0.619-0.019 1.347-0.030 2.078-0.030 14.057 0 27.165 4.065 38.212 11.083l-0.29-0.172c29.76 20.16 35.84 60.48 40.96 96s6.4 53.44 17.92 53.44 16-64 16-112c-0.049-0.568-0.077-1.23-0.077-1.898 0-8.567 4.612-16.057 11.489-20.123l0.109-0.059c14.72-8.32 32 2.24 56.32 16.96 12.584 9.246 27.308 16.493 43.213 20.896l0.947 0.224c11.185-3.391 20.762-9.246 28.48-16.96v0c18.56-14.72 49.6-39.68 78.72-10.24 2.866 2.866 4.639 6.826 4.639 11.2 0 8.748-7.091 15.839-15.839 15.839-4.374 0-8.334-1.773-11.2-4.639v0z" />
<glyph unicode="&#xe029;" glyph-name="collection" d="M896 640v256h-768v-96h-64v-800h896v640zM352 864h512v-224h-192v160h-320zM256 864h64v-64h-64zM160 864h64v-64h-64zM928 32h-832v416h832zM672 480h-576v288h544v-160h288v-128z" />
<glyph unicode="&#xe02a;" glyph-name="decision-box" d="M800 840.64l22.4 22.4 57.6-56.32 56.64 57.28 22.4-22.4-56.32-57.6 57.28-56.64-22.4-22.4-57.6 56.32-56.64-57.28-22.4 22.4 56.32 57.6zM640 672h32v-64h-32zM640 544h32v-64h-32zM640 288h32v-64h-32zM320 480c53.019 0 96 42.981 96 96s-42.981 96-96 96c-53.019 0-96-42.981-96-96v0c0-53.019 42.981-96 96-96v0zM541.76 224c-16.023 109.372-109.195 192.401-221.76 192.401s-205.737-83.029-221.613-191.185l-0.147-1.216zM64 192c0 141.385 114.615 256 256 256v0c-70.692 0-128 57.308-128 128s57.308 128 128 128c70.692 0 128-57.308 128-128v0c0-70.692-57.308-128-128-128v0c141.385 0 256-114.615 256-256v0zM704 96h-64v64h32v-32h32zM704 384h-32v-32h-32v64h64zM704 768h-32v-32h-32v64h64zM960 55.36l-22.4-22.4-57.6 56.32-56.64-57.28-22.4 22.4 56.32 56.64-57.28 57.6 22.4 22.4 56.64-56.32 57.6 57.28 22.4-22.4-56.32-57.6zM832 334.72l-70.4 70.080 22.4 22.4 48-47.36 106.24 106.24 22.4-22.72z" />
<glyph unicode="&#xe02b;" glyph-name="range-slider" d="M928 480h-355.2c-15.344 73.633-79.704 128.16-156.8 128.16s-141.456-54.527-156.618-127.12l-0.182-1.040h-163.2c-17.673 0-32-14.327-32-32s14.327-32 32-32v0h163.2c15.344-73.633 79.704-128.16 156.8-128.16s141.456 54.527 156.618 127.12l0.182 1.040h355.2c17.673 0 32 14.327 32 32s-14.327 32-32 32v0zM416 320c-59.282 0.046-109.129 40.384-123.639 95.107l-0.201 0.893c-2.643 9.6-4.161 20.623-4.161 32s1.519 22.4 4.364 32.877l-0.203-0.877c14.848 55.461 64.653 95.633 123.84 95.633s108.992-40.172 123.636-94.738l0.204-0.895c2.643-9.6 4.161-20.623 4.161-32s-1.519-22.4-4.364-32.877l0.203 0.877c-14.711-55.616-64.558-95.954-123.835-96h-0.005z" />
<glyph unicode="&#xe02c;" glyph-name="privacy-policy" d="M384 583.36c-0.001 0.096-0.002 0.209-0.002 0.322 0 13.432 10.888 24.32 24.32 24.32 0.113 0 0.226-0.001 0.339-0.002h39.343c0.064 0 0.139 0 0.214 0 32.796 0 60.964 19.814 73.187 48.123l0.199 0.517c4.315 8.124 12.722 13.562 22.4 13.562s18.085-5.438 22.334-13.425l0.066-0.137c12.422-28.827 40.59-48.64 73.386-48.64 0.075 0 0.151 0 0.226 0h39.348c0.096 0.001 0.209 0.002 0.322 0.002 13.432 0 24.32-10.888 24.32-24.32 0-0.113-0.001-0.226-0.002-0.339v0.017-190.080c0.002-0.215 0.003-0.469 0.003-0.723 0-29.21-13.403-55.289-34.394-72.424l-0.168-0.133-110.080-89.28c-4.252-3.729-9.86-6.004-16-6.004s-11.748 2.275-16.028 6.028l0.028-0.024-108.8 89.28c-21.16 17.268-34.563 43.347-34.563 72.557 0 0.254 0.001 0.508 0.003 0.762v-0.039zM672 393.28v182.72h-32c-0.041 0-0.090 0-0.139 0-40.453 0-75.897 21.447-95.582 53.591l-0.279 0.489c-19.963-32.633-55.407-54.080-95.861-54.080-0.049 0-0.098 0-0.147 0h-31.992v-182.72c0.149-19.036 9.070-35.959 22.915-46.944l0.125-0.096 104.96-85.44 104.96 85.44c13.97 11.081 22.891 28.004 23.040 47.015v0.025zM224 800c0 35.346-28.654 64-64 64s-64-28.654-64-64v0-128h128zM832 752c0 61.856-50.144 112-112 112v0h-480c9.929-13.23 15.926-29.907 16-47.983v-672.017c0-61.856 50.144-112 112-112s112 50.144 112 112v0 16h352zM512 128c-4.48-38.939-23.868-72.649-52.22-95.794l-0.26-0.206h356.48c0.341-0.004 0.744-0.006 1.148-0.006 56.213 0 102.754 41.413 110.777 95.393l0.075 0.612zM960 144c-0.182-79.456-64.544-143.818-143.983-144h-448.017c-79.456 0.182-143.818 64.544-144 143.983v496.017h-160v160c0 53.019 42.981 96 96 96v0h560c79.456-0.182 143.818-64.544 144-143.983v-592.017h96z" />
<glyph unicode="&#xe02d;" glyph-name="logs" d="M64 896v-896h896v896h-896zM928 32h-832v608h832v-608zM96 672v192h832v-192h-832zM224 512h576v-32h-576v32zM224 192h576v-32h-576v32zM224 352h224v-32h-224v32zM368 723.2h-76.8v112h28.8v-92.8h48v-19.2zM435.2 720c-19.2 0-35.2 6.4-44.8 16s-19.2 25.6-19.2 41.6c0 19.2 6.4 32 19.2 41.6s28.8 16 48 16c19.2 0 35.2-6.4 44.8-16 12.8-9.6 16-25.6 16-41.6 0-19.2-6.4-32-19.2-41.6s-25.6-16-44.8-16zM435.2 742.4c9.6 0 19.2 3.2 25.6 9.6s9.6 16 9.6 25.6c0 12.8-3.2 22.4-9.6 28.8s-12.8 9.6-25.6 9.6c-9.6 0-19.2-3.2-25.6-9.6s-9.6-16-9.6-25.6c0-12.8 3.2-19.2 9.6-25.6s16-12.8 25.6-12.8zM630.4 729.6c-6.4-3.2-12.8-6.4-22.4-6.4-6.4-3.2-16-3.2-25.6-3.2-19.2 0-38.4 3.2-48 12.8-12.8 9.6-19.2 22.4-19.2 41.6 0 16 6.4 32 19.2 41.6 12.8 12.8 28.8 16 51.2 16 9.6 0 16 0 22.4-3.2 6.4 0 12.8-3.2 22.4-6.4l-9.6-19.2c-6.4 3.2-12.8 3.2-16 3.2s-12.8 0-19.2 0c-12.8 0-22.4-3.2-28.8-9.6-6.4 3.2-12.8-6.4-12.8-19.2s3.2-22.4 9.6-28.8c6.4-6.4 16-9.6 28.8-9.6 3.2 0 6.4 0 9.6 0s6.4 0 6.4 3.2v25.6h-22.4v19.2h54.4v-57.6zM646.4 729.6l12.8 19.2c6.4-3.2 12.8-6.4 16-6.4 6.4 0 9.6-3.2 16-3.2s12.8 0 16 3.2c3.2 3.2 6.4 6.4 6.4 9.6s0 6.4-3.2 9.6-9.6 6.4-16 6.4c-16 3.2-25.6 6.4-32 12.8s-9.6 12.8-9.6 22.4c0 9.6 3.2 16 12.8 25.6s19.2 9.6 35.2 9.6c6.4 0 12.8 0 19.2-3.2s12.8-3.2 16-6.4l-9.6-19.2c-6.4 3.2-9.6 3.2-12.8 6.4-3.2 0-9.6 0-12.8 0-6.4 0-9.6 0-12.8-3.2s-6.4-6.4-6.4-9.6c0-3.2 0-6.4 3.2-9.6s9.6-3.2 16-6.4 25.6-6.4 32-12.8c6.4-6.4 9.6-12.8 9.6-22.4s-3.2-19.2-12.8-25.6-22.4-9.6-38.4-9.6c-6.4 0-16 0-22.4 3.2-9.6 6.4-16 6.4-22.4 9.6z" />
<glyph unicode="&#xe02e;" glyph-name="import" d="M960 640v-544c0-54.4 0-64 0-99.2l-896 3.2c0 32 0 41.6 0 96v448c0 54.4 0 32 0 99.2h128v-35.2h-96v-576h832v576h-96v32h99.2c0 0 9.6 0 28.8 0zM496 851.2l99.2-99.2 19.2 16-118.4 118.4-118.4-118.4 19.2-19.2 99.2 102.4zM480 160h32v640h-32v-640z" />
<glyph unicode="&#xe02f;" glyph-name="export" d="M960 640v-544c0-54.4 0-64 0-99.2l-896 3.2c0 32 0 41.6 0 96v448c0 54.4 0 32 0 99.2h128v-35.2h-96v-576h832v576h-96v32h99.2c0 0 9.6 0 28.8 0zM496 198.4l-99.2 99.2-19.2-19.2 118.4-118.4 118.4 118.4-19.2 19.2-99.2-99.2zM512 889.6h-32v-640h32v640z" />
<glyph unicode="&#xe031;" glyph-name="section-divider" d="M64 576h896v-32h-896v32zM64 416h896v-32h-896v32zM512 60.8l-92.8 96-25.6-25.6 118.4-115.2 118.4 115.2-25.6 25.6zM496 320h32v-192h-32v192zM512 848l92.8-92.8 25.6 22.4-118.4 118.4-118.4-118.4 25.6-22.4zM496 800h32v-166.4h-32v166.4z" />
<glyph unicode="&#xe032;" glyph-name="Repeater" horiz-adv-x="1287" d="M810.030 827.274c-7.33 0-13.273-5.942-13.273-13.273v0c0-7.33 5.942-13.273 13.273-13.273v0h358.36v-743.667h-1141.844v742.058h592.038l-110.203-108.594c-2.419-2.419-3.915-5.761-3.915-9.452 0-7.382 5.984-13.367 13.367-13.367 3.691 0 7.033 1.496 9.452 3.915l132.726 132.726c2.442 2.408 3.954 5.753 3.954 9.452s-1.513 7.043-3.953 9.45l-0.002 0.001-132.726 132.726c-2.408 2.442-5.753 3.954-9.452 3.954s-7.043-1.513-9.45-3.953l-0.001-0.002c-2.42-2.343-3.922-5.621-3.922-9.251s1.502-6.908 3.919-9.247l110.206-110.206h-618.583v-796.757h1194.935v796.757zM92.104-64h1194.935v789.115h-32.578v-756.537h-1162.357z" />
<glyph unicode="&#xe902;" glyph-name="geo-location" d="M521.92 0c-151.040 0-303.68 32-303.68 91.2 0 52.48 108.16 74.24 172.48 82.88l4.16-30.080c-110.72-14.4-146.24-41.92-146.24-52.8 0-20.8 96-60.8 273.28-60.8s273.28 40 273.28 60.8c0 9.92-32 35.52-131.2 50.56q-10.56 1.92-21.12 2.88l3.52 30.4 22.080-3.2c58.56-8.96 157.12-32 157.12-80.64 0-59.2-153.6-91.2-303.68-91.2zM521.92 75.84l-9.6 10.24c-12.48 13.12-305.6 324.8-305.6 494.72 0 174.080 141.12 315.2 315.2 315.2s315.2-141.12 315.2-315.2v0c0-169.92-293.12-481.6-305.6-494.72zM521.92 869.76c-159.058 0-288-128.942-288-288v0c0-143.36 237.76-410.56 288-466.56 50.88 56 288 323.52 288 466.56 0 159.058-128.942 288-288 288v0zM521.92 384c-120.531 0-218.24 97.709-218.24 218.24s97.709 218.24 218.24 218.24c120.531 0 218.24-97.709 218.24-218.24v0c-0.182-120.457-97.782-218.058-218.222-218.24h-0.018zM521.92 800c-109.75 0-198.72-88.97-198.72-198.72s88.97-198.72 198.72-198.72c109.75 0 198.72 88.97 198.72 198.72 0 0.113 0 0.225 0 0.338v-0.018c-0.182 109.612-89.082 198.4-198.72 198.4 0 0 0 0 0 0v0zM512 799.040h19.52v-394.24h-19.52v394.24zM320.96 611.84h411.52v-19.52h-411.52v19.52zM521.92 394.88c-64 0-114.24 90.88-114.24 207.040s50.24 206.72 114.24 206.72 114.24-90.88 114.24-206.72-50.24-207.040-114.24-207.040zM521.92 789.12c-51.2 0-96-85.76-96-187.2s43.52-187.52 96-187.52 96 85.76 96 187.52-44.8 187.2-96 187.2zM520 661.12c-0.334-0.001-0.73-0.001-1.126-0.001-66.203 0-129.075 14.258-185.714 39.871l2.84-1.149 8.64 17.6c50.746-22.438 109.928-35.5 172.16-35.5s121.413 13.062 174.951 36.594l-2.791-1.094 8.32-17.6c-51.518-24.448-111.936-38.723-175.689-38.723-0.559 0-1.118 0.001-1.677 0.003h0.087zM708.8 496.32c-53.856 22.546-116.438 35.644-182.080 35.644s-128.224-13.098-185.276-36.822l3.196 1.178-8.32 17.6c56.142 24.063 121.477 38.053 190.080 38.053s133.938-13.991 193.308-39.275l-3.228 1.222z" />
<glyph unicode="&#xe903;" glyph-name="wysiwyg" d="M64 768h576v-32h-576zM64 608h512v-32h-512zM64 448h352v-32h-352zM64 288h288v-32h-288zM64 128h896v-32h-896zM475.84 256c1.010-0.152 2.175-0.24 3.36-0.24s2.35 0.087 3.489 0.255l-0.129-0.016 110.080 27.52c5.057 1.101 9.416 3.586 12.796 7.036l0.004 0.004 338.56 339.84c9.937 9.956 16.082 23.701 16.082 38.88s-6.145 28.924-16.083 38.881l0.001-0.001-43.52 43.84c-9.956 9.937-23.701 16.082-38.88 16.082s-28.924-6.145-38.881-16.083l-338.559-338.559c-3.424-3.453-5.981-7.771-7.312-12.598l-0.048-0.202-28.8-110.4c-0.641-2.215-1.010-4.758-1.010-7.389 0-12.598 8.465-23.218 20.016-26.485l0.194-0.047c1.557-0.365 3.345-0.574 5.182-0.574 1.22 0 2.419 0.092 3.59 0.27l-0.131-0.016zM861.44 712.96l43.84-43.84-43.84-43.52-43.52 43.52zM528.32 379.84l250.56 250.56 43.52-43.84-250.56-250.56-57.92-16z" />
<glyph unicode="&#xe904;" glyph-name="everest-icon" d="M960 544h-167.36l-56.64 97.92h167.68zM792.32 835.2l55.68-96h-167.36l-56.96 96zM64 59.84l448 776.32 279.68-484.16h-335.68l56 96h112l-112 193.92-280-485.12h672l56.32-96z" />
<glyph unicode="&#xe905;" glyph-name="eye" d="M952 457.28c-65.63 70.333-144.265 127.562-232.208 168.026l-4.592 1.894c-9.28 4.16-18.56 7.68-28.48 11.52-51.775 20.741-111.774 32.926-174.576 33.279l-0.144 0.001c-248.64 0-432.32-206.080-440-214.72l-8-9.28 8-9.28c65.63-70.333 144.265-127.562 232.208-168.026l4.592-1.894c9.28-4.16 18.56-7.68 28.48-11.52 51.775-20.741 111.774-32.926 174.576-33.279l0.144-0.001c248.64 0 432.32 206.080 440 214.72l8 9.28zM512 252.16c-54.765 0.526-107.049 10.451-155.543 28.234l3.223-1.034c-9.6 3.52-19.2 7.040-28.48 11.2-89.052 39.144-164.982 92.215-228.673 157.31l-0.127 0.13c38.4 39.68 203.2 195.84 409.6 195.84 54.765-0.526 107.049-10.451 155.543-28.234l-3.223 1.034c9.6-3.52 19.2-7.040 28.48-11.2 89.052-39.144 164.982-92.215 228.673-157.31l0.127-0.13c-38.4-39.68-203.2-195.84-409.6-195.84zM602.24 516.48c-5.637 7.74-12.306 14.308-19.893 19.661l-0.267 0.179c-19.123 14.746-43.422 23.634-69.797 23.634-62.418 0-113.209-49.779-114.84-111.803l-0.003-0.151c0-0.010 0-0.021 0-0.033 0-26.043 9.177-49.942 24.473-68.64l-0.153 0.193c5.637-7.74 12.306-14.308 19.893-19.661l0.267-0.179c19.123-14.746 43.422-23.634 69.797-23.634 62.418 0 113.209 49.779 114.84 111.803l0.003 0.151c0 0.077 0 0.169 0 0.26 0 25.969-9.179 49.794-24.47 68.408l0.15-0.188zM512 364.16c-18.637 0.032-35.927 5.769-50.225 15.558l0.305-0.198c-21.482 15.509-35.413 40.324-35.839 68.413l-0.001 0.067c0.72 46.458 38.549 83.842 85.11 83.842 0.228 0 0.457-0.001 0.685-0.003h-0.035c18.637-0.032 35.927-5.769 50.225-15.558l-0.305 0.198c21.482-15.509 35.413-40.324 35.839-68.413l0.001-0.067c-0.72-46.458-38.549-83.842-85.11-83.842-0.228 0-0.457 0.001-0.685 0.003h0.035zM359.68 279.36l-22.4-22.080c-9.92 3.84-19.2 7.36-28.48 11.52l22.4 21.76c9.28-4.16 18.88-7.68 28.48-11.2zM462.080 379.52l-20.16-19.84c-7.854 5.532-14.523 12.1-19.992 19.598l-0.168 0.242 20.48 19.84c5.531-7.742 12.098-14.309 19.588-19.668l0.252-0.172zM602.24 516.48l-20.48-19.84c-5.531 7.742-12.098 14.309-19.588 19.668l-0.252 0.172 20.16 19.84c7.854-5.532 14.523-12.1 19.992-19.598l0.168-0.242zM715.2 627.2l-22.4-21.76c-9.28 4.16-18.88 7.68-28.48 11.2l22.4 22.080c9.92-3.84 19.2-7.36 28.48-11.52z" />
<glyph unicode="&#xe906;" glyph-name="yes-no" d="M791.040 0h-617.92c-56.554 0-102.4 45.846-102.4 102.4v0 302.4c0.181 56.481 45.919 102.219 102.383 102.4h119.377l168.64 379.52c2.643 5.439 8.073 9.15 14.383 9.28h0.017c80.413 0 145.6-65.187 145.6-145.6v0-156.8h228.8c2.439 0.151 5.289 0.238 8.16 0.238s5.721-0.086 8.549-0.256l-0.389 0.019c49.496-7.789 86.903-50.136 86.903-101.221 0-5.385-0.416-10.673-1.217-15.834l0.073 0.575-59.52-390.080c-7.995-49.493-50.327-86.861-101.421-87.040h-0.019zM320 32h470.4c0.4-0.008 0.871-0.013 1.344-0.013 35.209 0 64.354 25.965 69.33 59.792l0.046 0.381 59.52 387.84c0.491 3.132 0.772 6.744 0.772 10.421 0 35.264-25.81 64.5-59.571 69.846l-0.401 0.052h-256c-0.095-0.002-0.207-0.003-0.32-0.003-8.66 0-15.68 7.020-15.68 15.68 0 0.001 0 0.002 0 0.003v0 174.4c-0.081 59.311-45.348 108.024-103.218 113.564l-0.462 0.036-165.76-376zM173.12 475.52c-39.058 0-70.72-31.662-70.72-70.72v0-302.4c0.182-38.92 31.774-70.4 70.719-70.4 0 0 0.001 0 0.001 0h114.88v443.52z" />
<glyph unicode="&#xe907;" glyph-name="delete" d="M736 704v192h-448v-192h-192v-32h96v-672h640v672h96v32zM320 864h384v-160h-384zM800 25.6h-576v646.4h576zM608 576h32v-448h-32v448zM416 576h32v-448h-32v448z" />
<glyph unicode="&#xe908;" glyph-name="reset" d="M512 25.6c-199.225 0.398-362.209 155.021-375.933 350.808l-0.067 1.192h38.4c11.967-152.246 122.643-275.538 267.532-306.481l2.228-0.399c20.368-4.214 43.799-6.657 67.791-6.72h0.049c0.072 0 0.158 0 0.243 0 24.035 0 47.498 2.447 70.154 7.105l-2.238-0.384c67.557 14.338 125.949 46.994 171.525 92.485l-0.005-0.005c15.059 15.048 28.739 31.472 40.838 49.067l0.762 1.173c11.366 16.521 22.052 35.427 31.050 55.26l0.95 2.34c16.794 39.024 26.56 84.451 26.56 132.158 0 0.001 0 0.001 0 0.002v0c0.001 0.229 0.001 0.501 0.001 0.772 0 70.533-21.651 136.009-58.668 190.145l0.747-1.158c-24.888 36.318-55.413 66.741-90.654 90.757l-1.186 0.763c-34.722 24.017-75.639 41.934-119.752 51.141l-2.168 0.379c-19.722 4.076-42.388 6.41-65.598 6.41-0.901 0-1.8-0.004-2.699-0.011l0.138 0.001h-25.6v-63.68l-111.040 82.88 110.080 82.88v-64h26.56c0.543 0.003 1.185 0.004 1.828 0.004 78.436 0 151.286-23.915 211.656-64.851l-1.324 0.847c40.373-27.671 74.199-61.598 100.912-100.763l0.848-1.317c26.123-38.326 45.604-83.433 55.589-132.005l0.411-2.395c4.948-22.986 7.782-49.393 7.782-76.461 0-78.893-24.072-152.163-65.272-212.867l0.85 1.328c-14.468-20.749-29.716-38.942-46.411-55.691l0.011 0.011c-16.624-16.798-34.835-31.96-54.411-45.266l-1.269-0.814c-38.456-26.863-83.726-47.071-132.553-57.782l-2.487-0.458c-20.956-4.106-45.053-6.455-69.699-6.455-2.272 0-4.539 0.020-6.801 0.060l0.34-0.005z" />
<glyph unicode="&#xe909;" glyph-name="progress" d="M960 320h-896v192h896zM96 352h832v128h-832zM448 448h-320v-64h320z" />
<glyph unicode="&#xe90a;" glyph-name="color" d="M512-3.2c-42.032 0.389-82.538 6.204-121.077 16.776l3.317-0.776c-193.583 53.648-333.331 228.27-333.331 435.532 0 113.657 42.024 217.499 111.383 296.835l-0.452-0.527c83.807 94.971 205.805 154.56 341.721 154.56 0.014 0 0.027 0 0.041 0h-0.002c1.67 0.020 3.643 0.032 5.618 0.032 20.007 0 39.74-1.174 59.134-3.457l-2.352 0.225c179.485-27.714 322.743-157.035 370.429-326.395l0.771-3.205c10.187-35.426 16.045-76.115 16.045-118.173 0-2.218-0.016-4.432-0.049-6.642l0.004 0.335c-1.59-62.89-52.519-113.371-115.437-114.239l-0.083-0.001c-0.066 0-0.144 0-0.222 0-18.093 0-35.193 4.254-50.353 11.816l0.655-0.296-19.84 9.6c-15.681 7.872-34.17 12.48-53.735 12.48-0.121 0-0.242 0-0.363-0.001h0.019c-0.058 0-0.126 0-0.195 0-44.772 0-84.037-23.576-106.058-58.99l-0.307-0.53c-11.898-18.403-18.97-40.892-18.97-65.034 0-20.062 4.884-38.983 13.528-55.639l-0.317 0.673 9.28-19.52c7.182-14.596 11.382-31.772 11.382-49.929 0-63.125-50.772-114.391-113.707-115.191l-0.075-0.001zM512 860.8c-0.024 0-0.052 0-0.080 0-227.983 0-412.8-184.817-412.8-412.8 0-189.535 127.736-349.235 301.817-397.71l2.903-0.69c32.41-9.028 69.646-14.276 108.088-14.4h5.832c27.062 0.706 50.577 15.247 63.809 36.785l0.191 0.335c7.174 11.343 11.432 25.149 11.432 39.949 0 12.263-2.923 23.843-8.11 34.082l0.198-0.431-9.28 19.84c-10.427 20.66-16.533 45.034-16.533 70.833 0 31.776 9.263 61.389 25.236 86.285l-0.383-0.638c30.105 46.48 81.708 76.8 140.392 76.8 0.031 0 0.062 0 0.093 0h-0.005c0.013 0 0.027 0 0.042 0 25.113 0 48.875-5.786 70.026-16.097l-0.948 0.417 19.84-9.6c9.656-4.651 20.996-7.369 32.97-7.369 42.322 0 76.715 33.95 77.429 76.102l0.001 0.067c0.021 1.54 0.033 3.359 0.033 5.181 0 38.588-5.387 75.919-15.449 111.28l0.696-2.861c-44.541 157.67-175.676 275.726-337.525 300.508l-2.315 0.292c-17.194 2.512-37.155 4.020-57.442 4.159l-0.158 0.001zM296 284.8c-23.859 0-43.2 19.341-43.2 43.2s19.341 43.2 43.2 43.2c23.859 0 43.2-19.341 43.2-43.2v0c0-23.859-19.341-43.2-43.2-43.2v0zM296 476.8c-23.859 0-43.2 19.341-43.2 43.2s19.341 43.2 43.2 43.2c23.859 0 43.2-19.341 43.2-43.2v0c0-23.859-19.341-43.2-43.2-43.2v0zM632 620.8c-23.859 0-43.2 19.341-43.2 43.2s19.341 43.2 43.2 43.2c23.859 0 43.2-19.341 43.2-43.2v0c0-23.859-19.341-43.2-43.2-43.2v0zM440 620.8c-23.859 0-43.2 19.341-43.2 43.2s19.341 43.2 43.2 43.2c23.859 0 43.2-19.341 43.2-43.2v0c0-23.859-19.341-43.2-43.2-43.2v0z" />
<glyph unicode="&#xe90b;" glyph-name="coupon" d="M946.24 542.4l13.76 1.6v160h-896v-160l13.76-2.24c44.988-8.541 78.546-47.552 78.546-94.4s-33.558-85.859-77.947-94.305l-0.599-0.095-13.76-0.96v-160h896v160h-13.76c-44.988 8.541-78.546 47.552-78.546 94.4s33.558 85.859 77.947 94.305l0.599 0.095zM832 448c0.198-59.151 40.488-108.837 95.107-123.319l0.893-0.201v-100.48h-608v48c0 8.837-7.163 16-16 16s-16-7.163-16-16v0-48h-192v100.48c54.851 15.264 94.432 64.77 94.432 123.52s-39.581 108.256-93.532 123.306l-0.9 0.214v100.48h192v-48c0-8.837 7.163-16 16-16s16 7.163 16 16v0 48h608v-100.48c-55.512-14.683-95.802-64.369-96-123.497v-0.023zM304 576c-8.837 0-16-7.163-16-16v0-32c0-8.837 7.163-16 16-16s16 7.163 16 16v0 32c0 8.837-7.163 16-16 16v0zM304 480c-8.837 0-16-7.163-16-16v0-32c0-8.837 7.163-16 16-16s16 7.163 16 16v0 32c0 8.837-7.163 16-16 16v0zM304 384c-8.837 0-16-7.163-16-16v0-32c0-8.837 7.163-16 16-16s16 7.163 16 16v0 32c0 8.837-7.163 16-16 16v0z" />
<glyph unicode="&#xe910;" glyph-name="validation" horiz-adv-x="1117" d="M0 480.582c2.793 20.015 4.655 40.029 8.844 60.509 34.429 193.038 176.078 345.74 360.026 395.758l3.494 0.809c43.454 13.965 93.444 22.015 145.314 22.015 98.519 0 190.256-29.040 267.116-79.027l-1.899 1.158 6.516-3.724c6.526-4.196 10.786-11.42 10.786-19.64 0-4.437-1.242-8.585-3.397-12.114l0.058 0.102c-4.152-6.763-11.507-11.206-19.9-11.206-4.716 0-9.103 1.402-12.77 3.813l0.088-0.054c-21.876 11.636-42.822 24.669-65.629 34.444-54.983 24.709-119.181 39.103-186.74 39.103-257.063 0-465.455-208.391-465.455-465.455s208.391-465.455 465.455-465.455c224.443 0 411.783 158.859 455.714 370.272l0.525 3.019c6.66 28.801 10.477 61.873 10.477 95.837 0 11.318-0.424 22.537-1.257 33.642l0.089-1.479c-0.102 1.738-0.16 3.772-0.16 5.818s0.058 4.080 0.172 6.098l-0.013-0.28c0 0.006 0 0.012 0 0.019 0 12.269 9.687 22.275 21.83 22.787l0.046 0.002c0.839 0.117 1.809 0.183 2.795 0.183 11.726 0 21.25-9.426 21.409-21.114v-0.015c1.002-16.069 1.573-34.848 1.573-53.76s-0.571-37.693-1.696-56.323l0.124 2.563c-10.562-100.072-49.756-189.404-109.125-261.498l0.674 0.844c-81.215-102.468-199.917-172.158-335.068-188.277l-2.387-0.232-28.858-4.189h-77.265c-63.34 4.994-121.711 21.636-174.533 47.79l2.78-1.245c-150.96 68.686-260.544 205.326-290.444 369.746l-0.465 3.083c-4.189 18.618-6.051 38.633-8.844 58.182zM1117.091 870.633c-4.655-5.585-9.309-12.102-14.429-17.222l-497.571-498.502c-18.618-18.618-27.927-18.618-46.545 0l-196.422 197.353-8.378 8.844c-2.696 3.799-4.31 8.531-4.31 13.64 0 7.711 3.676 14.563 9.372 18.899l0.058 0.042c3.748 2.942 8.532 4.717 13.731 4.717s9.983-1.776 13.779-4.754l-0.048 0.037 8.844-7.913 177.338-177.338c3.684-4.051 7.641-7.712 11.891-11.013l0.211-0.158c1.964 4.273 4.139 7.94 6.642 11.35l-0.126-0.179 479.418 480.349c8.378 8.378 17.687 15.36 29.789 9.775s9.775-9.775 14.895-14.429z" />
<glyph unicode="&#xe911;" glyph-name="misc" d="M481.28 960h61.44c3.379-1.365 7.384-2.546 11.526-3.346l0.421-0.068c215.69-18.303 391.788-168.76 447.997-369.327l0.857-3.58c9.387-34.133 13.653-69.973 20.48-104.96v-61.44c-1.456-3.787-2.645-8.24-3.365-12.85l-0.048-0.377c-18.833-215.164-169.13-390.661-369.328-446.718l-3.579-0.856c-34.133-9.387-69.973-13.653-104.96-20.48h-61.44c-3.787 1.456-8.24 2.645-12.85 3.365l-0.377 0.048c-220.916 19.093-400.181 176.979-451.12 385.212l-0.72 3.481c-7.253 29.44-11.093 59.307-16.213 89.173v61.44c1.365 3.379 2.546 7.384 3.346 11.526l0.068 0.421c18.548 221.445 176.603 401.319 385.21 452.399l3.483 0.721c29.44 7.253 59.307 11.093 89.173 16.213zM42.667 448c0-0.059 0-0.129 0-0.199 0-254.405 202.416-461.532 454.982-469.118l0.698-0.017c2.899-0.064 6.314-0.1 9.738-0.1 255.145 0 463.166 201.762 473.22 454.441l0.029 0.913c0.034 2.094 0.053 4.565 0.053 7.040 0 259.235-210.151 469.386-469.386 469.386-256.759 0-465.368-206.157-469.329-461.973l-0.005-0.373zM269.227 549.973c55.678-0.841 100.491-46.174 100.491-101.973 0-56.324-45.66-101.984-101.984-101.984-0.525 0-1.049 0.004-1.572 0.012l0.079-0.001c-0.129-0.001-0.281-0.001-0.434-0.001-14.148 0-27.638 2.822-39.936 7.935l0.689-0.254c-12.95 5.758-23.99 13.52-33.259 23.018l-0.021 0.022c-9.255 9.488-16.64 20.849-21.529 33.455l-0.231 0.678c-4.37 10.584-6.907 22.873-6.907 35.755 0 1.38 0.029 2.754 0.087 4.12l-0.007-0.195c0.927 55.133 45.839 99.471 101.107 99.471 1.205 0 2.405-0.021 3.6-0.063l-0.173 0.005zM328.533 448c0.025 0.648 0.040 1.409 0.040 2.173 0 32.754-26.552 59.307-59.307 59.307-0.764 0-1.525-0.014-2.282-0.043l0.109 0.003c-33.697 0-61.013-27.317-61.013-61.013s27.317-61.013 61.013-61.013v0c0.641-0.025 1.393-0.039 2.148-0.039 32.754 0 59.307 26.552 59.307 59.307 0 0.464-0.005 0.926-0.016 1.388l0.001-0.069zM613.973 448c0-0.004 0-0.009 0-0.014 0-21.129-6.373-40.77-17.301-57.105l0.235 0.373c-11.413-16.57-27.060-29.473-45.397-37.288l-0.683-0.259c-11.323-4.863-24.502-7.691-38.342-7.691-7.273 0-14.365 0.781-21.194 2.264l0.656-0.119c-20.643 4.137-38.53 13.957-52.491 27.744l0.011-0.010c-13.675 14.013-23.471 31.87-27.615 51.799l-0.118 0.681c-1.188 5.768-1.869 12.397-1.869 19.185 0 14.357 3.043 28.003 8.52 40.328l-0.251-0.633c16.432 37.186 52.992 62.667 95.504 62.667 13.693 0 26.769-2.644 38.744-7.448l-0.701 0.248c12.938-5.446 23.987-12.939 33.284-22.191l-0.004 0.004c9.104-9.3 16.461-20.353 21.511-32.599l0.249-0.681c4.61-10.817 7.29-23.401 7.29-36.61 0-0.929-0.013-1.856-0.040-2.779l0.003 0.136zM571.307 448c0.025 0.637 0.039 1.384 0.039 2.135 0 32.519-26.361 58.88-58.88 58.88-0.164 0-0.327-0.001-0.49-0.002h0.025c-0.892 0.051-1.935 0.080-2.984 0.080-7.376 0-14.416-1.44-20.854-4.054l0.371 0.133c-7.519-3.681-13.892-8.554-19.147-14.446l-0.053-0.061c-10.804-10.548-17.504-25.259-17.504-41.534 0-0.398 0.004-0.796 0.012-1.192l-0.001 0.059c0-33.697 27.317-61.013 61.013-61.013s61.013 27.317 61.013 61.013v0zM756.907 549.973c0.716 0.019 1.56 0.030 2.406 0.030 13.29 0 25.955-2.677 37.486-7.521l-0.638 0.238c12.89-5.413 23.925-12.754 33.314-21.793l-0.034 0.033c9.162-9.266 16.528-20.33 21.52-32.612l0.24-0.668c4.858-11.477 7.681-24.822 7.681-38.826 0-0.15 0-0.3-0.001-0.45v0.023c0.015-0.648 0.024-1.413 0.024-2.179 0-55.376-44.891-100.267-100.267-100.267-1.059 0-2.113 0.016-3.164 0.049l0.154-0.004c-56.135 0.242-101.547 45.804-101.547 101.972 0 0 0 0.001 0 0.001v0c0.24 56.136 45.803 101.55 101.972 101.55 0.3 0 0.6-0.001 0.9-0.004h-0.046zM756.907 386.987c0.516-0.016 1.123-0.025 1.732-0.025 32.754 0 59.307 26.552 59.307 59.307 0 0.609-0.009 1.216-0.027 1.82l0.002-0.089c0.015 0.512 0.023 1.114 0.023 1.718 0 7.807-1.417 15.282-4.007 22.184l0.143-0.436c-3.090 7.696-7.58 14.241-13.205 19.606l-0.022 0.021c-5.412 5.736-11.942 10.352-19.25 13.509l-0.376 0.145c-7.232 3.235-15.673 5.12-24.554 5.12-33.932 0-61.44-27.508-61.44-61.44 0-33.865 27.398-61.33 61.237-61.44h0.010z" />
<glyph unicode="&#xe912;" glyph-name="ai-settings" d="M851.072 35.456h-678.272c-6.003 0.015-11.432 2.459-15.359 6.399l-51.628 51.628c-3.941 3.928-6.385 9.357-6.4 15.357v678.275c0.003 6.018 2.449 11.465 6.399 15.402l51.628 51.628c3.928 3.941 9.357 6.385 15.357 6.4h678.275c6.018-0.003 11.465-2.449 15.402-6.399l51.628-51.628c3.941-3.928 6.385-9.357 6.4-15.357v-678.36c-0.015-6.003-2.459-11.432-6.399-15.359l-51.628-51.628c-3.928-3.941-9.357-6.385-15.357-6.4h-0.003zM181.845 79.019h660.224l38.827 38.827v660.309l-38.827 38.827h-660.224l-38.827-38.827v-660.224l38.827-38.827zM792.235 146.005h-560.427c-12.018 0-21.76 9.742-21.76 21.76v560.469c0 12.018 9.742 21.76 21.76 21.76v0h560.427c12.018 0 21.76-9.742 21.76-21.76v0-560.384c0-12.018-9.742-21.76-21.76-21.76v0zM253.611 189.568h516.821v516.821h-516.821v-516.821zM1002.24 693.419h-92.288c-12.029 0-21.781 9.752-21.781 21.781s9.752 21.781 21.781 21.781h92.245c12.018 0 21.76-9.742 21.76-21.76s-9.742-21.76-21.76-21.76v0zM1002.24 559.787h-92.288c-12.041 0-21.803 9.761-21.803 21.803s9.761 21.803 21.803 21.803v0h92.245c12.029 0 21.781-9.752 21.781-21.781s-9.752-21.781-21.781-21.781v0zM1002.24 426.24h-92.288c-12.018 0-21.76 9.742-21.76 21.76s9.742 21.76 21.76 21.76h92.245c12.018 0 21.76-9.742 21.76-21.76s-9.742-21.76-21.76-21.76v0zM1002.24 292.608h-92.288c-12.018 0-21.76 9.742-21.76 21.76s9.742 21.76 21.76 21.76h92.245c12.018 0 21.76-9.742 21.76-21.76s-9.742-21.76-21.76-21.76v0zM1002.24 158.976h-92.288c-12.029 0-21.781 9.752-21.781 21.781s9.752 21.781 21.781 21.781h92.245c12.018 0 21.76-9.742 21.76-21.76s-9.742-21.76-21.76-21.76v0zM244.779 824.149c0 0 0 0 0 0-12.018 0-21.76 9.742-21.76 21.76 0 0.015 0 0.030 0 0.045v-0.002 92.245c0 12.018 9.742 21.76 21.76 21.76s21.76-9.742 21.76-21.76v0-92.245c0-12.018-9.742-21.76-21.76-21.76v0zM378.453 824.149c-0.025 0-0.055 0-0.085 0-12.018 0-21.76 9.742-21.76 21.76 0 0.015 0 0.030 0 0.045v-0.002 92.245c0 12.041 9.761 21.803 21.803 21.803s21.803-9.761 21.803-21.803v0-92.245c0 0 0 0 0 0 0-12.018-9.742-21.76-21.76-21.76-0.015 0-0.030 0-0.045 0h0.002zM512 824.149c0 0 0 0 0 0-12.018 0-21.76 9.742-21.76 21.76 0 0.015 0 0.030 0 0.045v-0.002 92.245c0 12.018 9.742 21.76 21.76 21.76s21.76-9.742 21.76-21.76v-92.245c0-12.018-9.742-21.76-21.76-21.76v0zM645.632 824.149c0 0 0 0 0 0-12.018 0-21.76 9.742-21.76 21.76 0 0.015 0 0.030 0 0.045v-0.002 92.245c0 12.018 9.742 21.76 21.76 21.76s21.76-9.742 21.76-21.76v-92.245c0-12.018-9.742-21.76-21.76-21.76v0zM779.264 824.149c-0.013 0-0.028 0-0.043 0-12.018 0-21.76 9.742-21.76 21.76 0 0.015 0 0.030 0 0.045v-0.002 92.245c0 12.029 9.752 21.781 21.781 21.781s21.781-9.752 21.781-21.781v0-92.245c0-12.018-9.742-21.76-21.76-21.76v0zM114.048 158.976h-92.245c-12.029 0-21.781 9.752-21.781 21.781s9.752 21.781 21.781 21.781h92.245c12.018 0 21.76-9.742 21.76-21.76s-9.742-21.76-21.76-21.76v0zM114.048 292.608h-92.245c-12.018 0-21.76 9.742-21.76 21.76s9.742 21.76 21.76 21.76h92.245c12.018 0 21.76-9.742 21.76-21.76s-9.742-21.76-21.76-21.76v0zM114.048 426.24h-92.245c-12.018 0-21.76 9.742-21.76 21.76s9.742 21.76 21.76 21.76h92.245c12.018 0 21.76-9.742 21.76-21.76s-9.742-21.76-21.76-21.76v0zM114.048 559.787h-92.245c-12.041 0-21.803 9.761-21.803 21.803s9.761 21.803 21.803 21.803v0h92.245c12.029 0 21.781-9.752 21.781-21.781s-9.752-21.781-21.781-21.781v0zM114.048 693.419h-92.245c-12.029 0-21.781 9.752-21.781 21.781s9.752 21.781 21.781 21.781h92.245c12.018 0 21.76-9.742 21.76-21.76s-9.742-21.76-21.76-21.76v0zM779.264-64c-0.013 0-0.028 0-0.043 0-12.018 0-21.76 9.742-21.76 21.76 0 0 0 0 0 0v0 92.288c0 12.029 9.752 21.781 21.781 21.781s21.781-9.752 21.781-21.781v0-92.288c0-12.018-9.742-21.76-21.76-21.76v0zM645.632-64c-12.018 0-21.76 9.742-21.76 21.76v0 92.288c0 12.018 9.742 21.76 21.76 21.76s21.76-9.742 21.76-21.76v-92.288c0-12.018-9.742-21.76-21.76-21.76v0zM512-64c-12.018 0-21.76 9.742-21.76 21.76v0 92.288c0 12.018 9.742 21.76 21.76 21.76s21.76-9.742 21.76-21.76v-92.288c0-12.018-9.742-21.76-21.76-21.76v0zM378.453-64c-0.025 0-0.055 0-0.085 0-12.018 0-21.76 9.742-21.76 21.76 0 0 0 0 0 0v0 92.288c0 12.041 9.761 21.803 21.803 21.803s21.803-9.761 21.803-21.803v0-92.288c0 0 0 0 0 0 0-12.018-9.742-21.76-21.76-21.76-0.015 0-0.030 0-0.045 0h0.002zM244.779-64c-12.018 0-21.76 9.742-21.76 21.76v0 92.288c0 12.018 9.742 21.76 21.76 21.76s21.76-9.742 21.76-21.76v0-92.288c0-12.018-9.742-21.76-21.76-21.76v0zM396.715 313.259h-56.277l85.717 248.235h67.627l85.589-248.235h-56.277l-62.208 191.531h-1.92l-62.293-191.531zM393.173 410.837h132.864v-40.96h-132.864v40.96zM661.76 561.493v-248.235h-52.48v248.235h52.48z" />
<glyph unicode="&#xe913;" glyph-name="ai-field" d="M512.085 127.915l5.515 1.855c-50.957-19.504-104.404-33.976-164.32-43.412 46.976-78.933 104.533-118.357 160.085-118.357 55.467 0 112.939 39.339 159.872 118.016-51.072 7.424-105.557 21.419-161.152 41.899zM513.365-64c-76.032 0-145.067 55.723-195.456 146.133-85.589-7.765-159.744 4.139-211.029 36.181-10.411-5.717-22.443-8.96-35.328-8.96-39.509 0-71.552 31.019-71.552 69.333v0.019c0.131 24.976 13.558 46.806 33.877 58.946-4.181 57.088 19.712 123.136 66.048 189.269-53.931 77.013-77.483 153.813-61.739 216.704-13.355 12.587-21.675 30.208-21.675 49.707 0 38.272 32.043 69.333 71.552 69.333h-0.013c0.082 0 0.164 0 0.246 0 16.208 0 31.177-5.3 43.074-14.123 44.587 20.096 101.76 28.245 166.187 24.661 51.243 114.091 128.896 186.795 215.808 186.795s164.523-72.704 215.765-186.624c64.213 3.243 121.045-5.205 165.248-25.557 12.203 9.301 27.563 14.848 44.288 14.848 39.552 0 71.552-31.061 71.552-69.333v-0.010c-0.056-20.604-9.239-39.061-23.808-51.617 14.805-62.549-8.789-138.539-62.208-214.741 47.104-67.2 70.997-134.229 65.877-192 20.352-12.203 33.92-34.048 33.92-58.965 0-38.315-32.043-69.333-71.552-69.333-13.781 0-26.581 3.755-37.504 10.24-50.688-30.72-122.965-42.24-206.251-34.987-50.347-90.283-119.296-145.92-195.328-145.92zM681.728 795.093c-48.341 88.619-109.483 132.907-168.363 132.907-58.837 0-119.979-44.288-168.363-132.907-4.352-7.979-8.576-16.299-12.587-24.875 56.32-6.485 117.333-21.248 179.627-44.288 63.317 23.339 125.141 38.229 182.187 44.587-3.968 8.491-8.192 16.683-12.501 24.576zM152.917 722.773c4.309-8.96 6.741-18.944 6.741-29.44 0-38.272-32.043-69.333-71.595-69.333-6.784 0-13.397 0.939-19.669 2.645-7.723-45.611 7.595-103.253 49.237-167.424l1.070-1.764c0.977-1.509 1.962-3.011 1.917-2.844 32.725 41.173 73.813 81.877 121.984 120.107l0.448 3.977c8.039 58.47 22.704 114.826 41.451 163.063-52.992 1.792-97.195-5.12-131.584-19.029zM318.933 739.499c-16.341-40.747-29.44-86.613-38.4-136.235 53.684 38.65 114.785 73.594 179.443 101.926l6.456 2.522c-42.693 14.637-92.671 25.83-144.31 31.502l-3.188 0.284zM140.459 426.923l1.142-1.513c29.668-37.872 63.195-72.576 101.045-104.386l0.575-4.969c-6.093 43.2-9.245 87.345-9.245 132.226 0 28.184 1.243 56.077 3.422 80.061l-0.936-0.782c-34.812-29.794-66.608-63.010-96.002-100.636zM267.008 448c0-55.381 4.949-108.373 13.995-157.611 31.141-23.651 66.397-46.857 103.177-67.682l4.727-2.462c41.131-23.040 82.517-42.325 123.179-58.027 40.661 15.701 82.048 34.987 123.179 58.027 40.107 22.443 77.227 46.848 110.933 72.448 8.632 46.211 13.569 99.378 13.569 153.697 0 0.566-0.001 1.131-0.002 1.697v-0.088c0 37.12-2.219 73.131-6.4 107.691-34.346 26.809-72.945 52.586-113.399 75.464l-4.702 2.446c-34.133 19.66-74.685 39.155-116.692 55.765l-6.487 2.261c-40.661-15.701-82.048-34.987-123.179-58.027-44.114-24.748-81.761-49.79-117.39-77.317l2.19 1.626c-4.265-32.835-6.699-70.813-6.699-109.359 0-0.194 0-0.387 0-0.581v0.030zM120.619 399.232l-2.987-4.608c-35.584-54.827-51.968-104.917-51.115-146.816 1.664 0.128 3.328 0.213 5.035 0.213 39.552 0 71.595-31.061 71.595-69.333v0.006c0-0.039 0-0.078 0-0.118 0-13.954-4.24-26.918-11.349-37.435 36.864-20.608 88.917-31.36 154.197-29.013l0.966 0.030c5.611 0.216 11.198 0.523 15.119 0.824-22.016 46.677-39.552 100.651-51.285 159.744-51.712 40.064-95.573 83.072-130.133 126.507zM291.2 243.115c11.691-46.933 27.221-89.6 45.739-126.72 48.927 6.752 92.67 17.148 134.717 31.245l-5.181-1.507c-67.186 29.124-124.778 61.564-178.522 99.132l3.247-2.15zM651.776 192.512l4.965 2.597c-29.938-17.013-60.837-32.532-99.045-48.976l-5.14 1.497c42.825-14.381 87.426-24.892 137.15-31.534l-1.628-3.606c20.217 40.541 36.137 83.6 48.049 132.844l3.154 2.109c-26.592-18.744-54.14-36.222-87.506-54.93zM776.448 275.115c-11.776-60.075-29.44-114.987-51.84-162.304 4.565-0.299 9.088-0.512 13.568-0.683 64.427-2.304 116.011 8.107 152.832 28.288-6.373 10.107-10.155 22.402-10.155 35.581 0 0.001 0 0.002 0 0.003v0c0 38.315 32.043 69.333 71.595 69.333 1.707 0 3.413-0.043 5.12-0.171 1.579 42.411-14.677 93.44-51.029 149.461-2.234 3.575-3.22 5.077-4.212 6.574l1.226-1.966c-33.877-42.581-76.757-84.736-127.104-124.117zM792.789 448c0-0.233 0-0.509 0-0.785 0-43.614-3.024-86.522-8.874-128.525l0.553 4.852c39.168 33.536 72.533 68.523 99.243 103.381-28.632 36.677-59.499 69.087-93.25 98.249l-0.873 0.737c2.133-25.429 3.2-51.413 3.2-77.909zM903.552 454.613l2.987 4.608c41.429 63.872 56.789 121.259 49.323 166.784-5.504-1.323-11.264-2.005-17.195-2.005-39.552 0-71.552 31.061-71.552 69.333 0 10.197 2.261 19.84 6.315 28.544-34.176 14.208-78.251 21.461-131.2 19.968l-1.765 5.237c20.794-54.226 35.589-111.423 44.005-174.709 46.933-37.547 87.040-77.44 119.040-117.76zM707.712 739.712l-3.082-0.263c-52.584-5.539-103.457-16.819-146.977-31.737l6.454-2.521c65.77-28.816 127.859-64.477 182.432-104.061-8.96 50.56-22.187 97.237-38.827 138.581zM902.571 706.432c-1.539-3.871-2.432-8.356-2.432-13.049 0-0.017 0-0.035 0-0.052v0.003c0-20.608 17.237-37.333 38.528-37.333 0.018 0 0.039 0 0.060 0 2.757 0 5.448 0.28 8.048 0.812l-0.257-0.044c-1.892 4.099-3.671 7.429-5.61 10.65l0.277-0.496c-9.91 16.059-22.855 29.303-38.137 39.261l-0.477 0.291zM973.227 676.821c2.501 4.796 3.968 10.474 3.968 16.494 0 0.006 0 0.012 0 0.018v-0.001c0 20.608-17.237 37.333-38.528 37.333-0.028 0-0.060 0-0.093 0-4.107 0-8.068-0.624-11.794-1.782l0.281 0.075c19.119-13.679 34.655-31.123 45.765-51.343l0.4-0.795zM40.789 201.088c-4.835-6.116-7.759-13.937-7.765-22.441v-0.001c0-20.608 17.28-37.333 38.528-37.333 1.92 0 3.84 0.171 5.675 0.427-16.365 16.101-28.901 36.044-36.15 58.369l-0.287 1.023zM105.045 160.171c3.185 5.281 5.071 11.657 5.077 18.473v0.002c0 20.651-17.28 37.333-38.571 37.333h-0.725c5.973-22.313 17.958-41.295 34.108-55.711l0.111-0.097zM990.976 176c-0.010 8.793-3.134 16.855-8.327 23.144l0.050-0.062c-7.981-23.56-21.074-43.597-38.029-59.581l-0.072-0.067c2.517-0.512 5.12-0.768 7.851-0.768 21.248 0 38.528 16.725 38.528 37.333zM941.184 186.923c4.582 7.591 8.462 16.354 11.19 25.611l0.202 0.8h-0.128c-21.333 0-38.571-16.725-38.571-37.333 0.002-6.147 1.534-11.935 4.234-17.006l-0.095 0.196c9.387 8.32 17.152 17.621 23.168 27.733zM88.064 730.667c-21.248 0-38.528-16.725-38.528-37.333v0.003c0-0.018 0-0.036 0-0.054 0-5.016 1.020-9.794 2.773-13.901l0.396 0.745c11.175 19.411 26.47 36.149 45.172 49.345-3.157 0.768-6.4 1.195-9.813 1.195zM88.064 656c21.291 0 38.528 16.725 38.528 37.333 0 5.12-1.024 10.027-2.987 14.464l-0.519-0.304c-16.123-10.129-29.761-23.849-40.1-40.571-1.877-3.115-3.584-6.315-5.12-9.6l-0.279 0.064c3.33-0.904 6.833-1.387 10.449-1.387 0.009 0 0.019 0 0.027 0zM432.384 401.493l29.44 75.861 30.037-75.861h-59.477zM568.149 322.475l-87.211 211.84h-36.309l-87.552-217.6h42.923l19.84 51.2h85.205l20.181-51.2 42.923 5.76zM640.597 316.715h-42.581v217.6h42.581v-217.6z" />
<glyph unicode="&#xe914;" glyph-name="lookup" d="M719.232 379.904l194.816-194.816c32.981-32.981 32.981-87.595-1.024-121.6-15.609-15.303-37.010-24.747-60.617-24.747-0.064 0-0.129 0-0.193 0h0.010c-0.062 0-0.135 0-0.208 0-23.612 0-45.019 9.444-60.649 24.761l0.014-0.014-195.84 193.749c-13.397 14.421-13.397 36.096 0 49.493l24.747 24.747-46.379 46.379c-52.565-49.493-122.667-80.427-199.979-80.427-158.72 0-288.597 129.877-288.597 288.64 0 158.72 129.877 288.597 288.597 288.597s288.64-129.877 288.64-288.597c0-66.987-22.699-127.829-60.843-177.28l48.469-48.469 19.584 19.627c6.382 6.225 15.116 10.064 24.747 10.064s18.364-3.84 24.754-10.072l-0.007 0.007zM128.64 586.069c0-136.107 111.317-247.381 247.381-247.381 136.606 0.049 247.333 110.776 247.381 247.377v0.004c0 136.064-111.36 247.381-247.381 247.381-136.107 0-247.381-111.36-247.381-247.381zM820.267 92.331c17.493-17.493 46.379-17.493 63.915 0 17.493 17.493 17.493 46.379 0 63.915l-188.629 189.653-63.915-63.915 188.587-189.653zM384 789.333c-11.782 0-21.333-9.551-21.333-21.333s9.551-21.333 21.333-21.333v0c25.045 0 63.061-7.68 94.208-30.123 30.037-21.632 55.125-57.899 55.125-119.211 0-11.782 9.551-21.333 21.333-21.333s21.333 9.551 21.333 21.333v0c0 75.221-31.829 124.288-72.875 153.856-39.936 28.757-87.253 38.144-119.125 38.144z" />
<glyph unicode="&#xe915;" glyph-name="analytics" d="M398.208 836.736v0c26.18 0 47.403-21.223 47.403-47.403s-21.223-47.403-47.403-47.403v0c-26.18 0-47.403 21.223-47.403 47.403s21.223 47.403 47.403 47.403zM312.832 789.333v-0.005c0.012-11.163 2.173-21.822 5.888-31.014l-101.547-87.040 0.323-0.199c-13.438 8.831-29.521 13.969-46.803 13.969-47.128 0-85.333-38.205-85.333-85.333s38.205-85.333 85.333-85.333c47.128 0 85.333 38.205 85.333 85.333 0 16.377-4.613 31.676-12.4 44.3l96.505 82.819c15.228-14.2 35.662-22.888 58.125-22.888 29.469 0 55.445 14.953 70.949 37.989l75.093-40.96 0.167 0.604c-2.615-8.191-4.026-16.92-4.026-25.979 0-47.128 38.205-85.333 85.333-85.333s85.333 38.205 85.333 85.333c0 5.502-0.521 10.882-1.431 15.561l83.077 38.096c15.458-15.559 36.873-25.192 60.538-25.192 47.128 0 85.333 38.205 85.333 85.333s-38.205 85.333-85.333 85.333c-47.128 0-85.333-38.205-85.333-85.333 0-9.907 1.688-19.419 4.61-27.667l-77.909-35.712-0.165 0.235c-15.512 21.068-40.489 34.737-68.658 34.737-24.628 0-46.816-10.449-62.419-27.207l-80.64 43.989-0.051-0.448c0.54 3.879 0.819 7.842 0.819 11.87 0 47.128-38.205 85.333-85.333 85.333-47.079 0-85.253-38.125-85.333-85.193zM123.307 599.723c0 26.18 21.223 47.403 47.403 47.403s47.403-21.223 47.403-47.403v0c0-26.18-21.223-47.403-47.403-47.403s-47.403 21.223-47.403 47.403v0zM578.432 675.541c0 26.18 21.223 47.403 47.403 47.403s47.403-21.223 47.403-47.403v0c0-26.18-21.223-47.403-47.403-47.403s-47.403 21.223-47.403 47.403v0zM853.333 836.736v0c26.18 0 47.403-21.223 47.403-47.403s-21.223-47.403-47.403-47.403v0c-26.18 0-47.403 21.223-47.403 47.403s21.223 47.403 47.403 47.403zM307.797 572.501c0 23.040 18.688 41.728 41.728 41.728h87.979c23.040 0 41.728-18.688 41.728-41.728v-477.355c0-23.040-18.688-41.685-41.728-41.685h-87.979c-23.031 0-41.704 18.658-41.728 41.683v477.357zM349.525 576.341c-2.102-0.024-3.797-1.734-3.797-3.84 0 0 0 0 0 0v0-477.355c0-2.091 1.707-3.755 3.84-3.755h87.936c2.133 0 3.84 1.707 3.84 3.755v477.355c0 2.121-1.719 3.84-3.84 3.84v0h-87.979zM85.333 372.224c0 23.040 18.688 41.728 41.728 41.728h87.979c23.040 0 41.728-18.688 41.728-41.728v-277.12c0-23.040-18.688-41.685-41.728-41.685h-87.979c-23.046 0-41.728 18.682-41.728 41.728v0 277.12zM127.061 376.021c0 0 0 0 0 0-2.106 0-3.816-1.695-3.84-3.795v-277.122c0-2.091 1.707-3.797 3.84-3.797h87.979c2.133 0 3.797 1.707 3.797 3.84v277.077c0 2.133-1.707 3.797-3.797 3.797h-87.979zM794.539 614.187c-23.046 0-41.728-18.682-41.728-41.728v0-477.312c0-23.040 18.688-41.685 41.728-41.685h87.979c23.040 0 41.728 18.645 41.728 41.685v477.355c0 23.046-18.682 41.728-41.728 41.728v0h-87.979zM790.741 572.459c0 2.133 1.707 3.84 3.797 3.84h87.979c2.133 0 3.797-1.707 3.797-3.84v-477.312c0-2.091-1.707-3.755-3.797-3.755h-87.979c0 0 0 0 0 0-2.082 0-3.773 1.676-3.797 3.752v477.357zM530.347 461.227c0 23.040 18.688 41.728 41.728 41.728h87.979c23.040 0 41.728-18.688 41.728-41.728v-366.080c0-23.040-18.688-41.771-41.728-41.771h-88.021c-23.027 0.024-41.685 18.697-41.685 41.728v0 366.123zM572.075 465.024c0 0 0 0 0 0-2.106 0-3.816-1.695-3.84-3.795v-366.082c0-2.133 1.707-3.84 3.84-3.84h87.979c2.102 0.024 3.797 1.734 3.797 3.84 0 0 0 0 0 0v0 366.080c0 2.133-1.707 3.797-3.84 3.797h-87.936z" />
<glyph unicode="&#xe916;" glyph-name="migration" d="M86.144 448c0-235.221 190.635-425.899 425.856-425.899s425.899 190.72 425.899 425.899c0 235.221-190.72 425.856-425.899 425.856-235.221 0-425.856-190.635-425.856-425.856zM512-21.333c-259.2 0-469.333 210.133-469.333 469.333s210.133 469.333 469.333 469.333 469.333-210.133 469.333-469.333-210.133-469.333-469.333-469.333zM399.019 639.189c0 9.602-7.784 17.387-17.387 17.387s-17.387-7.784-17.387-17.387v0-357.803l-80.939 80.939c-3.145 3.145-7.489 5.090-12.288 5.090-9.598 0-17.378-7.78-17.378-17.378 0-4.799 1.945-9.143 5.090-12.288v0l110.592-110.635c6.827-6.827 17.792-6.827 24.576 0l110.635 110.635c3.145 3.145 5.090 7.489 5.090 12.288 0 9.598-7.78 17.378-17.378 17.378-4.799 0-9.143-1.945-12.288-5.090v0l-80.939-80.981v357.888zM642.389 222.037c9.591 0 17.365 7.775 17.365 17.365v357.845l80.939-80.981c3.145-3.145 7.489-5.090 12.288-5.090 9.598 0 17.378 7.78 17.378 17.378 0 4.799-1.945 9.143-5.090 12.288v0l-110.592 110.592c-3.143 3.148-7.488 5.095-12.288 5.095s-9.145-1.947-12.288-5.095v0l-110.635-110.592c-3.145-3.145-5.090-7.489-5.090-12.288 0-9.598 7.78-17.378 17.378-17.378 4.799 0 9.143 1.945 12.288 5.090v0l80.939 80.939v-357.845c0-9.6 7.808-17.365 17.408-17.365z" />
<glyph unicode="&#xe917;" glyph-name="captcha" d="M652.245 514.944c3.487 3.64 5.633 8.589 5.633 14.039 0 11.217-9.093 20.309-20.309 20.309-5.45 0-10.398-2.147-14.046-5.64l-148.132-148.132-66.901 66.901c-3.64 3.487-8.589 5.633-14.039 5.633-11.217 0-20.309-9.093-20.309-20.309 0-5.45 2.147-10.398 5.64-14.046l81.23-81.273c3.675-3.673 8.751-5.945 14.357-5.945s10.682 2.272 14.357 5.945l162.56 162.517zM516.011 874.667c-0.004 0-0.009 0-0.014 0-16.861 0-32.286-6.151-44.152-16.332l0.091 0.076-0.171-0.171c-68.48-59.776-165.461-105.472-240.171-105.472-33.65 0-60.928-27.278-60.928-60.928v0-284.416c0-106.923 37.675-188.16 98.048-250.027 59.776-61.269 140.928-102.571 227.029-132.309 13.099-4.821 27.392-4.992 40.576-0.512h0.171c85.973 29.995 167.083 71.424 226.859 132.779 60.331 61.867 98.005 143.147 98.005 250.027v284.501c0 33.65-27.278 60.928-60.928 60.928v0c-74.709 0-171.307 45.269-240.171 105.472l-0.171 0.171c-11.767 10.079-27.173 16.213-44.011 16.213-0.022 0-0.045 0-0.067 0h0.004zM231.595 712.107c87.808 0 193.877 51.797 266.795 115.456 4.716 4.024 10.883 6.473 17.621 6.473s12.906-2.449 17.659-6.505l-0.038 0.032c73.344-64.085 178.987-115.413 266.752-115.413 0.013 0 0.028 0 0.043 0 11.217 0 20.309-9.093 20.309-20.309 0 0 0 0 0 0v0-284.416c0-96.213-33.451-167.296-86.485-221.739-53.547-54.955-128-93.739-211.029-122.667-1.927-0.669-4.149-1.055-6.461-1.055-2.537 0-4.965 0.465-7.204 1.315l0.14-0.046-0.427 0.171c-83.285 28.757-157.867 67.413-211.456 122.368-53.077 54.357-86.528 125.44-86.528 221.653v284.416c0 11.217 9.093 20.309 20.309 20.309v0z" />
<glyph unicode="&#xe918;" glyph-name="payment-logs" d="M126.683 886.857c0 10.825 8.777 19.602 19.602 19.602h602.185c30.574 0 59.355-13.714 80.165-37.193 20.773-23.406 32.073-54.711 32.073-86.894v-572.087c-0.466-10.456-9.056-18.756-19.584-18.756s-19.118 8.3-19.583 18.714l-0.001 0.042v572.087c0 23.223-8.192 45.093-22.199 60.891-13.934 15.726-32.293 23.991-50.834 23.991h-602.222c-10.826 0-19.602 8.776-19.602 19.602v0zM84.261 871.387c19.931 22.162 47.47 35.072 76.654 35.072 29.147 0 56.686-12.91 76.617-35.072 19.075-21.548 30.723-50.054 30.723-81.28 0-0.276-0.001-0.553-0.003-0.828v0.042-682.642c0-21.321 7.643-41.362 20.699-55.881 12.983-14.409 30.098-22.053 47.506-22.053 17.371 0 34.487 7.643 47.47 22.053 12.858 14.647 20.703 33.971 20.703 55.128 0 0.265-0.001 0.53-0.004 0.794v-0.040 48.75c0 17.518 6.217 34.633 17.883 47.579 11.703 13.019 28.050 20.773 45.605 20.773h438.857c17.554 0 33.865-7.753 45.568-20.773 11.666-12.946 17.92-30.062 17.92-47.579v-48.75c0.001-0.221 0.002-0.483 0.002-0.745 0-31.246-11.662-59.768-30.871-81.45l0.112 0.129c-19.931-22.162-47.433-35.072-76.617-35.072h-526.629c-29.184 0-56.686 12.91-76.654 35.072-19.075 21.548-30.723 50.054-30.723 81.28 0 0.276 0.001 0.553 0.003 0.828v-0.042 516.754h-112.055c-18.14 0.138-34.39 8.115-45.549 20.708l-0.056 0.064c-11.125 12.51-17.921 29.085-17.921 47.247 0 0.13 0 0.26 0.001 0.389v-0.020 97.499c0 30.464 10.898 59.977 30.757 82.066zM229.083 662.638v126.683c0.002 0.224 0.003 0.489 0.003 0.754 0 21.157-7.845 40.481-20.784 55.223l0.082-0.095c-12.983 14.409-30.098 22.053-47.47 22.053-17.408 0-34.523-7.643-47.543-22.053-12.836-14.636-20.667-33.94-20.667-55.073 0-0.284 0.001-0.568 0.004-0.852v0.043-97.499c0-8.375 3.035-16.018 7.826-21.394 4.013-4.664 9.873-7.642 16.432-7.789h112.116zM416.622 28.745h446.464c17.371 0 34.487 7.643 47.47 22.053 12.858 14.647 20.703 33.971 20.703 55.128 0 0.265-0.001 0.53-0.004 0.794v-0.040 48.75c0.001 0.107 0.002 0.234 0.002 0.361 0 8.049-2.965 15.405-7.862 21.036l0.033-0.039c-3.999 4.689-9.865 7.684-16.433 7.826h-438.881c-6.592-0.142-12.458-3.137-16.431-7.795l-0.026-0.031c-4.885-5.598-7.864-12.971-7.864-21.039 0-0.112 0.001-0.224 0.002-0.336v0.017-48.75c0.001-0.218 0.002-0.476 0.002-0.733 0-29.333-10.247-56.272-27.357-77.433l0.182 0.233zM445.513 742.839c10.971 9.143 25.527 14.043 40.338 14.043h141.056c6.12 0 11.081-4.961 11.081-11.081s-4.961-11.081-11.081-11.081h-141.056c-10.094 0-19.493-3.365-26.149-8.923-5.788-4.504-9.538-11.392-9.764-19.164l-0.001-0.036c0-6.729 3.182-13.678 9.765-19.163 6.656-5.559 16.055-8.923 26.149-8.923h94.062c14.811 0 29.33-4.901 40.338-14.043 11.045-9.216 17.737-22.162 17.737-36.206 0-14.080-6.693-27.063-17.737-36.206-10.971-9.179-25.527-14.080-40.338-14.080h-141.056c-6.12 0-11.081 4.961-11.081 11.081s4.961 11.081 11.081 11.081h141.056c10.094 0 19.493 3.365 26.149 8.923 6.583 5.486 9.765 12.434 9.765 19.2-0.238 7.794-3.986 14.667-9.708 19.121l-0.056 0.042c-6.951 5.563-15.872 8.927-25.578 8.927-0.201 0-0.401-0.001-0.601-0.004h-94.032c-0.175-0.002-0.381-0.003-0.588-0.003-15.112 0-28.986 5.298-39.867 14.138l0.117-0.092c-10.687 8.586-17.536 21.573-17.773 36.166l-0.001 0.039c0 14.080 6.729 27.063 17.774 36.206zM532.846 788.224c6.144 0 11.118-4.974 11.118-11.081v-219.429c0-6.12-4.961-11.081-11.081-11.081s-11.081 4.961-11.081 11.081v219.429c0 6.107 4.937 11.081 11.081 11.081zM352.768 448c0 7.131 5.778 12.946 12.946 12.946h365.714c7.15 0 12.946-5.796 12.946-12.946s-5.796-12.946-12.946-12.946h-365.714c-7.15 0-12.946 5.796-12.946 12.946v0zM352.768 338.286c0 7.131 5.778 12.946 12.946 12.946h365.714c7.15 0 12.946-5.796 12.946-12.946s-5.796-12.946-12.946-12.946h-365.714c-7.15 0-12.946 5.796-12.946 12.946v0z" />
<glyph unicode="&#xe919;" glyph-name="api-logs" d="M170.679 868.571c-43.776 0-79.25-35.474-79.25-79.25v-682.642c0-43.776 35.474-79.25 79.25-79.25h682.642c43.776 0 79.25 35.474 79.25 79.25v682.642c0 43.776-35.474 79.25-79.25 79.25h-682.642zM54.857 789.321c0 63.967 51.855 115.822 115.822 115.822v0h682.642c63.967 0 115.822-51.855 115.822-115.822v0-682.642c0-63.967-51.855-115.822-115.822-115.822h-682.642c-63.967 0-115.822 51.855-115.822 115.822v682.642zM536.393 685.605v-0.073c-0.11-1.463-0.11-3.401-0.11-6.949v-65.353h54.418c20.016 0 36.242 16.226 36.242 36.242s-16.226 36.242-36.242 36.242h-47.25c-3.584 0-5.559 0-6.949-0.073h-0.11zM536.283 576.622h54.418c40.224 0 72.832 32.608 72.832 72.832s-32.608 72.832-72.832 72.832h-48.713c-5.083 0-11.447 0.037-17.115-1.829-11.085-3.68-19.655-12.226-23.294-23.039l-0.075-0.257-0.037-0.146c-1.205-4.34-1.898-9.324-1.898-14.47 0-1.407 0.052-2.802 0.154-4.183l-0.011 0.185v-192.658c0-10.099 8.187-18.286 18.286-18.286s18.286 8.187 18.286 18.286v0 90.77zM335.579 722.286c0.198 0.008 0.431 0.012 0.665 0.012 7.57 0 14.065-4.6 16.844-11.156l0.045-0.12 90.843-218.112c0.891-2.079 1.409-4.499 1.409-7.040 0-10.1-8.187-18.287-18.287-18.287-7.559 0-14.047 4.586-16.832 11.128l-0.045 0.12-18.030 43.301h-97.317l-14.007-42.057c-2.5-7.325-9.323-12.499-17.353-12.499-10.104 0-18.296 8.191-18.296 18.296 0 2.074 0.345 4.067 0.981 5.925l-0.038-0.129 72.741 218.112c2.423 7.133 8.938 12.227 16.681 12.507l0.032 0.001zM307.054 558.702h69.925l-38.839 93.184-31.086-93.184zM736.183 722.286c10.099 0 18.286-8.187 18.286-18.286v0-218.112c0-10.099-8.187-18.286-18.286-18.286s-18.286 8.187-18.286 18.286v0 218.112c0 10.099 8.187 18.286 18.286 18.286v0zM501.833 255.122c0 10.099-8.187 18.286-18.286 18.286v0h-227.547c-10.099 0-18.286-8.187-18.286-18.286s8.187-18.286 18.286-18.286v0h227.547c10.099 0 18.286 8.187 18.286 18.286v0zM501.833 157.623c0 10.099-8.187 18.286-18.286 18.286v0h-227.547c-10.099 0-18.286-8.187-18.286-18.286s8.187-18.286 18.286-18.286v0h227.547c10.099 0 18.286 8.187 18.286 18.286v0zM501.833 352.658c0 10.099-8.187 18.286-18.286 18.286v0h-227.547c-10.099 0-18.286-8.187-18.286-18.286s8.187-18.286 18.286-18.286v0h227.547c10.099 0 18.286 8.187 18.286 18.286v0zM761.966 255.122c0 10.099-8.187 18.286-18.286 18.286v0h-32.475c-10.099 0-18.286-8.187-18.286-18.286s8.187-18.286 18.286-18.286v0h32.512c10.099 0 18.286 8.187 18.286 18.286v0zM761.966 157.623c0 10.099-8.187 18.286-18.286 18.286v0h-32.475c-10.099 0-18.286-8.187-18.286-18.286s8.187-18.286 18.286-18.286v0h32.512c10.099 0 18.286 8.187 18.286 18.286v0zM761.966 352.658c0 10.099-8.187 18.286-18.286 18.286v0h-32.475c-10.099 0-18.286-8.187-18.286-18.286s8.187-18.286 18.286-18.286v0h32.512c10.099 0 18.286 8.187 18.286 18.286v0zM631.845 255.122c0 10.099-8.187 18.286-18.286 18.286v0h-32.512c-10.099 0-18.286-8.187-18.286-18.286s8.187-18.286 18.286-18.286v0h32.512c10.099 0 18.286 8.187 18.286 18.286v0zM631.845 157.623c0 10.099-8.187 18.286-18.286 18.286v0h-32.512c-10.099 0-18.286-8.187-18.286-18.286s8.187-18.286 18.286-18.286v0h32.512c10.099 0 18.286 8.187 18.286 18.286v0zM631.845 352.658c0 10.099-8.187 18.286-18.286 18.286v0h-32.512c-10.099 0-18.286-8.187-18.286-18.286s8.187-18.286 18.286-18.286v0h32.512c10.099 0 18.286 8.187 18.286 18.286v0z" />
<glyph unicode="&#xe920;" glyph-name="subscription-plan" d="M175.872 637.623c0 107.109 86.829 193.938 193.938 193.938s193.938-86.829 193.938-193.938v0c0-107.109-86.829-193.938-193.938-193.938s-193.938 86.829-193.938 193.938v0zM369.81 874.679c-130.912 0-237.038-106.125-237.038-237.038s106.125-237.038 237.038-237.038v0c130.912 0 237.038 106.125 237.038 237.038s-106.125 237.038-237.038 237.038v0zM326.693 745.326c-35.042-0.86-63.121-29.471-63.121-64.64s28.079-63.78 63.041-64.638l0.080-0.002h21.577v-43.118h-64.658c-0.375 0.023-0.814 0.037-1.256 0.037-11.917 0-21.577-9.66-21.577-21.577s9.66-21.577 21.577-21.577c0.442 0 0.88 0.013 1.316 0.039l-0.060-0.003h64.658v-21.577c0.683-11.364 10.066-20.321 21.541-20.321s20.858 8.957 21.538 20.262l0.003 0.060v21.577h21.577c0.458-0.012 0.997-0.018 1.538-0.018 35.71 0 64.658 28.949 64.658 64.658s-28.949 64.658-64.658 64.658c-0.541 0-1.080-0.007-1.617-0.020l0.080 0.002h-21.577v43.154h64.658c11.364 0.683 20.321 10.066 20.321 21.541s-8.957 20.858-20.262 21.538l-0.060 0.003h-64.695v21.577c0.023 0.375 0.037 0.814 0.037 1.256 0 11.917-9.66 21.577-21.577 21.577s-21.577-9.66-21.577-21.577c0-0.442 0.013-0.88 0.039-1.316l-0.003 0.060v-21.577h-21.577zM326.693 702.245h21.577v-43.118h-21.577c-11.528 0.49-20.689 9.954-20.689 21.559s9.161 21.069 20.645 21.557l0.044 0.001zM391.351 572.928v43.154h21.577c0.265 0.012 0.576 0.018 0.888 0.018 11.917 0 21.577-9.66 21.577-21.577s-9.66-21.577-21.577-21.577c-0.312 0-0.623 0.007-0.932 0.020l0.044-0.001h-21.577zM403.31 82.578l521.509 521.509c8.575 8.579 13.878 20.429 13.878 33.518 0 26.186-21.228 47.414-47.414 47.414-13.098 0-24.955-5.311-33.536-13.896l-487.936-487.936-203.52 203.52c-8.578 8.578-20.428 13.883-33.518 13.883-26.179 0-47.401-21.222-47.401-47.401 0-13.089 5.306-24.94 13.883-33.518l237.019-237.056c8.577-8.579 20.428-13.885 33.518-13.885s24.94 5.306 33.518 13.885v0z" />
<glyph unicode="&#xe921;" glyph-name="yes-no-optimized" d="M803.621 164.133c-10.099 0-18.286 8.187-18.286 18.286v0 265.582c0 10.099 8.187 18.286 18.286 18.286s18.286-8.187 18.286-18.286v0-265.582c0-10.099-8.187-18.286-18.286-18.286v0zM709.303-2.816c-3.071-6.034-9.236-10.095-16.349-10.095-0.077 0-0.153 0-0.23 0.001h0.012c-47.889 0.658-86.458 39.634-86.458 87.617 0 7.416 0.921 14.617 2.656 21.495l-0.129-0.605 16.64 68.535h-105.765c-0.008 0-0.018 0-0.027 0-34.538 0-62.537 27.999-62.537 62.537 0 6.256 0.919 12.298 2.628 17.997l-0.114-0.443 51.566 177.006c7.819 26.246 31.735 45.056 60.044 45.056 0.002 0 0.004 0 0.006 0h298.788c34.538 0 62.537-27.999 62.537-62.537v-177.079c0-34.538-27.999-62.537-62.537-62.537v0h-61.074c-0.002 0-0.005 0-0.007 0-10.129 0-18.904-5.8-23.184-14.261l-0.068-0.148v-0.073l-76.398-152.466zM682.313 24.978l70.619 141.019c10.48 20.73 31.599 34.703 55.986 34.743h61.079c0.011 0 0.024 0 0.037 0 14.34 0 25.966 11.625 25.966 25.966 0 0 0 0 0 0v0 177.006c0 0.011 0 0.024 0 0.037 0 14.34-11.625 25.966-25.966 25.966 0 0 0 0 0 0h-298.789c-0.005 0-0.011 0-0.017 0-11.747 0-21.672-7.801-24.878-18.504l-0.047-0.184-51.566-177.042c-0.66-2.179-1.039-4.684-1.039-7.278 0-14.353 11.629-25.99 25.98-26.002h129.025c0.001 0 0.003 0 0.005 0 10.099 0 18.286-8.187 18.286-18.286 0-1.532-0.188-3.019-0.543-4.441l0.027 0.126-22.126-91.173v-0.073c-0.949-3.677-1.494-7.899-1.494-12.247 0-24.061 16.681-44.226 39.109-49.562l0.346-0.070zM220.379 728.101c10.099 0 18.286-8.187 18.286-18.286v0-265.582c0-10.099-8.187-18.286-18.286-18.286s-18.286 8.187-18.286 18.286v0 265.582c0 10.099 8.187 18.286 18.286 18.286v0zM314.661 895.049c3.071 6.034 9.236 10.095 16.349 10.095 0.089 0 0.179-0.001 0.268-0.002h-0.013c47.889-0.632 86.468-39.602 86.468-87.581 0-7.429-0.925-14.643-2.666-21.531l0.13 0.605-16.64-68.535h105.765c0.008 0 0.018 0 0.027 0 34.538 0 62.537-27.999 62.537-62.537 0-6.256-0.919-12.298-2.628-17.997l0.114 0.443-51.566-177.006c-7.819-26.246-31.735-45.056-60.044-45.056-0.002 0-0.004 0-0.006 0h-298.788c-34.538 0-62.537 27.999-62.537 62.537v0 177.042c0 34.538 27.999 62.537 62.537 62.537v0h61.074c10.14 0.004 18.92 5.82 23.191 14.297l0.068 0.149v0.037l76.361 152.503zM341.65 867.255l-70.583-141.019c-10.48-20.73-31.599-34.703-55.986-34.743h-61.116c-0.011 0-0.024 0-0.037 0-14.34 0-25.966-11.625-25.966-25.966 0 0 0 0 0 0v0-177.006c0-0.011 0-0.024 0-0.037 0-14.34 11.625-25.966 25.966-25.966 0 0 0 0 0 0h298.789c0.005 0 0.011 0 0.017 0 11.747 0 21.672 7.801 24.878 18.504l0.047 0.184 51.566 177.042c0.66 2.179 1.039 4.684 1.039 7.278 0 14.353-11.629 25.99-25.98 26.002h-129.025c-0.001 0-0.003 0-0.005 0-10.099 0-18.286 8.187-18.286 18.286 0 1.532 0.188 3.019 0.543 4.441l-0.027-0.126 22.126 91.173v0.073c0.948 3.675 1.492 7.893 1.492 12.239 0 24.074-16.698 44.247-39.144 49.57l-0.346 0.069z" />
<glyph unicode="&#xe922;" glyph-name="wysiwyg-optimized" d="M226.304 855.625c19.302 19.295 45.962 31.229 75.41 31.232h384c5.669 0 11.081-2.231 15.104-6.217l213.321-213.358c4.023-4.023 6.217-9.435 6.217-15.104v-554.642c0-58.904-47.741-106.658-106.64-106.679h-597.323c-11.785 0-21.339 9.554-21.339 21.339s9.554 21.339 21.339 21.339v0h597.321c35.346 0 64 28.654 64 64v0 545.829l-200.85 200.814h-375.15c-35.346 0-64-28.654-64-64v0-170.642c0-11.785-9.554-21.339-21.339-21.339s-21.339 9.554-21.339 21.339v0 170.642c0 28.306 11.264 55.442 31.269 75.447zM643.035 886.857c11.813 0 21.358-9.545 21.358-21.321v-170.679c0-35.346 28.654-64 64-64v0h170.642c11.785 0 21.339-9.554 21.339-21.339s-9.554-21.339-21.339-21.339v0h-170.642c-58.917 0-106.679 47.762-106.679 106.679v170.679c0 11.776 9.545 21.321 21.321 21.321zM109.714 438.857c0 11.776 9.545 21.321 21.321 21.321h256c11.776 0 21.358-9.509 21.358-21.321v-42.679c0-11.785-9.554-21.339-21.339-21.339s-21.339 9.554-21.339 21.339v0 21.358h-213.321v-21.358c0-11.785-9.554-21.339-21.339-21.339s-21.339 9.554-21.339 21.339v0 42.679zM259.035 460.178c11.776 0 21.358-9.509 21.358-21.321v-256c0-11.785-9.554-21.339-21.339-21.339s-21.339 9.554-21.339 21.339v0 256c0 11.776 9.545 21.321 21.321 21.321zM195.035 182.857c0 11.776 9.545 21.321 21.358 21.321h85.321c11.775 0 21.321-9.546 21.321-21.321s-9.546-21.321-21.321-21.321v0h-85.321c-0.011 0-0.024 0-0.037 0-11.775 0-21.321 9.546-21.321 21.321 0 0 0 0 0 0v0zM545.536 292.571c0 6.729 5.449 12.178 12.178 12.178h195.035c6.726 0 12.178-5.452 12.178-12.178s-5.452-12.178-12.178-12.178v0h-195.035c-6.726 0-12.178 5.452-12.178 12.178v0zM545.536 438.857c0 6.729 5.449 12.178 12.178 12.178h195.035c6.726 0 12.178-5.452 12.178-12.178s-5.452-12.178-12.178-12.178v0h-195.035c-6.726 0-12.178 5.452-12.178 12.178v0zM545.536 146.286c0 6.729 5.449 12.178 12.178 12.178h195.035c6.726 0 12.178-5.452 12.178-12.178s-5.452-12.178-12.178-12.178v0h-195.035c-6.726 0-12.178 5.452-12.178 12.178v0z" />
<glyph unicode="&#xe923;" glyph-name="subscription-plan-optimized" d="M175.872 637.623c0 107.109 86.829 193.938 193.938 193.938s193.938-86.829 193.938-193.938v0c0-107.109-86.829-193.938-193.938-193.938s-193.938 86.829-193.938 193.938v0zM369.81 874.679c-130.912 0-237.038-106.125-237.038-237.038s106.125-237.038 237.038-237.038v0c130.912 0 237.038 106.125 237.038 237.038s-106.125 237.038-237.038 237.038v0zM326.693 745.326c-35.042-0.86-63.121-29.471-63.121-64.64s28.079-63.78 63.041-64.638l0.080-0.002h21.577v-43.118h-64.658c-0.375 0.023-0.814 0.037-1.256 0.037-11.917 0-21.577-9.66-21.577-21.577s9.66-21.577 21.577-21.577c0.442 0 0.88 0.013 1.316 0.039l-0.060-0.003h64.658v-21.577c0.683-11.364 10.066-20.321 21.541-20.321s20.858 8.957 21.538 20.262l0.003 0.060v21.577h21.577c0.458-0.012 0.997-0.018 1.538-0.018 35.71 0 64.658 28.949 64.658 64.658s-28.949 64.658-64.658 64.658c-0.541 0-1.080-0.007-1.617-0.020l0.080 0.002h-21.577v43.154h64.658c11.364 0.683 20.321 10.066 20.321 21.541s-8.957 20.858-20.262 21.538l-0.060 0.003h-64.695v21.577c0.023 0.375 0.037 0.814 0.037 1.256 0 11.917-9.66 21.577-21.577 21.577s-21.577-9.66-21.577-21.577c0-0.442 0.013-0.88 0.039-1.316l-0.003 0.060v-21.577h-21.577zM326.693 702.245h21.577v-43.118h-21.577c-11.528 0.49-20.689 9.954-20.689 21.559s9.161 21.069 20.645 21.557l0.044 0.001zM391.351 572.928v43.154h21.577c0.265 0.012 0.576 0.018 0.888 0.018 11.917 0 21.577-9.66 21.577-21.577s-9.66-21.577-21.577-21.577c-0.312 0-0.623 0.007-0.932 0.020l0.044-0.001h-21.577zM403.31 82.578l521.509 521.509c8.575 8.579 13.878 20.429 13.878 33.518 0 26.186-21.228 47.414-47.414 47.414-13.098 0-24.955-5.311-33.536-13.896l-487.936-487.936-203.52 203.52c-8.578 8.578-20.428 13.883-33.518 13.883-26.179 0-47.401-21.222-47.401-47.401 0-13.089 5.306-24.94 13.883-33.518l237.019-237.056c8.577-8.579 20.428-13.885 33.518-13.885s24.94 5.306 33.518 13.885v0z" />
</font>
</defs>
</svg>
